Browse Collections Artists Sources   Search Dates

Add Show    List Management    Help


PBS (Porter Batiste Stoltz) 08/28/09
Bennie's Boom Boom Room, Hattiesburg, MS
Comments Add Comment    Source Collectors    Add to Collection    Add to Want List    History
Source # 107813 Other Sources
Entered by ziko
Checksums ffp
Disc Counts 2 / 2
Media Size
Date Circulated
Date Added
08/29/09
05/19/2010
Source Summary Source: AKG c460b/a60m/ck3(DIN)>Mini MP>HD-P2 @ 24/48; Location: DFC, 9' high 30' from stage; Transfer: CF Card>HDD>CdWave>FLAC; Taper: jkbyram  
Source Information - Download Text | Download Zip
Porter, Batiste & Stoltz
2009-08-28
Bennie's Boom Boom Room
Hattiesburg, MS

Source: AKG c460b/a60m/ck3(DIN)>Mini MP>HD-P2 @ 24/48
Location: DFC, 9' high 30' from stage
Transfer: CF Card>HDD>CdWave>FLAC
Taper: jkbyram

Set 1
01.
02.
03.
04.
05.
06.
07.
08.
09.


Set 2
01.
02.
03.
04.
05.
06.
07.



Any help with the setlist would be great!!



shntool 3.0.4
Copyright (C) 2000-2007 Jason Jordan

    length     expanded size    cdr  WAVE problems  fmt   ratio  filename
    11:11.56      118496156 B   ---   --   -----    wav  1.0000  pbs2009-08-28d1t01.wav
     7:34.54       80212652 B   ---   --   -----    wav  1.0000  pbs2009-08-28d1t02.wav
    12:28.62      132093068 B   ---   --   -----    wav  1.0000  pbs2009-08-28d1t03.wav
     7:39.14       81000572 B   ---   --   -----    wav  1.0000  pbs2009-08-28d1t04.wav
     8:17.74       87844892 B   ---   --   -----    wav  1.0000  pbs2009-08-28d1t05.wav
     9:28.22      100246988 B   ---   --   -----    wav  1.0000  pbs2009-08-28d1t06.wav
     9:01.48       95545340 B   ---   --   -----    wav  1.0000  pbs2009-08-28d1t07.wav
     6:30.57       68930108 B   ---   --   -----    wav  1.0000  pbs2009-08-28d1t08.wav
    10:37.25      112425644 B   ---   --   -----    wav  1.0000  pbs2009-08-28d1t09.wav
     8:38.09       91396412 B   ---   --   -----    wav  1.0000  pbs2009-08-28d2t01.wav
    11:41.68      123816380 B   ---   --   -----    wav  1.0000  pbs2009-08-28d2t02.wav
     8:48.63       93287420 B   ---   --   -----    wav  1.0000  pbs2009-08-28d2t03.wav
     8:21.64       88526972 B   ---   --   -----    wav  1.0000  pbs2009-08-28d2t04.wav
    15:08.53      160295900 B   ---   --   -----    wav  1.0000  pbs2009-08-28d2t05.wav
     8:30.08       89982860 B   ---   --   -----    wav  1.0000  pbs2009-08-28d2t06.wav
     7:13.34       76461212 B   ---   --   -----    wav  1.0000  pbs2009-08-28d2t07.wav
   151:13.36     1600562576 B                            1.0000  (16 files)
Show Checksums
ffp
pbs2009-08-28d1t01.flac:0157456d04f031a685d80c8d0c811b57
pbs2009-08-28d1t02.flac:defdcc488c6716edcc080ff01787a5e7
pbs2009-08-28d1t03.flac:54ebb40654a4960e1ff935ac12e4deab
pbs2009-08-28d1t04.flac:c36c743ddd4b0bade855ed542a0a5c03
pbs2009-08-28d1t05.flac:8e3b1e2316c47858e91490a378beeae8
pbs2009-08-28d1t06.flac:50636e6ff357cde95c20e6f9cdeba653
pbs2009-08-28d1t07.flac:0631bfc38c81243f6d79c6d4c0a46de0
pbs2009-08-28d1t08.flac:4e2ea24dcbef46ef4a7df46eb3b71b02
pbs2009-08-28d1t09.flac:20c48ae1ba432fd922b2b3575f2fdfc4
pbs2009-08-28d2t01.flac:7b37022187c92cc4ab648cc450337f14
pbs2009-08-28d2t02.flac:34d53d320517ae255af3780316d5d784
pbs2009-08-28d2t03.flac:96829dfbe48d6faaf29db587cdfbf6ec
pbs2009-08-28d2t04.flac:c331502683dfb8493a608a71e5ffdb05
pbs2009-08-28d2t05.flac:5d49265c9c9b7bc653cd064c618292c6
pbs2009-08-28d2t06.flac:ce7987d978b01d015a54df30dcabfedc
pbs2009-08-28d2t07.flac:7bf164beb8239112d4c53b6f9071b14d

Comments
Add Comment
Date User Comment