Browse Collections Artists Sources   Search Dates

Add Show    List Management    Help


Drive-By Truckers 05/12/08
The Handlebar, Greenville, SC
Comments Add Comment    Source Collectors    Add to Collection    Add to Want List    History
Source # 107851 Other Sources
Entered by
Checksums ffp
Disc Counts 2 / 2
Media Size
Date Circulated
Date Added
05/13/2008
05/22/2010
Source Summary Source: AKG 480/ck63 (dina @ 8') > Lunatec V3 > Tascam HD-P2 @ 24/48
Location: directly in front of soundboard dfc
Transfer: compact flash card > PC > wavelab 5.01b > cd wave > traders little helper (flac level 8)
Recorded by TaperBryan & Gordon Wilson 
  Archive
Source Information - Download Text | Download Zip
Drive-By Truckers
05/12/2008
The Handlebar
Greenville, SC

source:   AKG 480/ck63 (dina @ 8') > Lunatec V3 > Tascam HD-P2 @ 24/48
location: directly in front of soundboard dfc
transfer: compact flash card > PC > wavelab 5.01b > cd wave > traders little helper (flac level 8)

all editing (fades at beginning and end of set, resampled w/ resampler 192, dither w/ iZotope Ozone 3) done in wavelab 5.01b

*16bit/44.1khz fileset*

recorded by TaperBryan & Gordon Wilson
transfered by Gordon Wilson


1. Intro
2. The Righteous Path
3. Where The Devil Don't Stay
4. The Tough Sell
5. One of These Days
6. I'm Sorry Huston
7. Sink Hole
8. Three Dimes Down
9. The Man I Shot
10. Self Destructive Zones
11. Tails Facing Up
12. Check Out Time In Vegas
13. You and Your Crystal Meth
14. Goode's Field Road
15. A Ghost To Most
16. The Opening Act
17. Marry Me
18. Play it All Night Long

encore:
19. Banter
20. Love Like This
21. Let There Be Rock
22. Lookout Mountain
23. People Who Died *

* w/ The Dexateens

suggested disc split after track 14


shntool 3.0.4
Copyright (C) 2000-2007 Jason Jordan

    length     expanded size    cdr  WAVE problems  fmt   ratio  filename
     2:42.01       28579196 B   ---   --   ---xx   flac  0.4612  dbt2008-05-12t01.flac
     4:30.44       47731532 B   ---   --   ---xx   flac  0.5846  dbt2008-05-12t02.flac
     5:17.03       55925900 B   ---   --   ---xx   flac  0.5850  dbt2008-05-12t03.flac
     3:58.60       42124364 B   ---   --   ---xx   flac  0.5596  dbt2008-05-12t04.flac
     5:41.49       60267692 B   ---   --   ---xx   flac  0.5414  dbt2008-05-12t05.flac
     3:18.27       34990748 B   ---   --   ---xx   flac  0.4811  dbt2008-05-12t06.flac
     4:44.39       50189372 B   ---   --   ---xx   flac  0.5481  dbt2008-05-12t07.flac
     2:54.08       30712460 B   ---   --   ---xx   flac  0.5651  dbt2008-05-12t08.flac
     5:30.15       58247324 B   ---   --   ---xx   flac  0.5735  dbt2008-05-12t09.flac
     3:49.61       40539116 B   ---   --   ---xx   flac  0.5438  dbt2008-05-12t10.flac
     5:37.45       59552684 B   ---   --   ---xx   flac  0.4985  dbt2008-05-12t11.flac
     2:38.39       27962972 B   ---   --   ---xx   flac  0.4430  dbt2008-05-12t12.flac
     5:09.03       54514700 B   ---   --   ---xx   flac  0.5275  dbt2008-05-12t13.flac
     6:00.37       63591068 B   ---   --   ---xx   flac  0.5046  dbt2008-05-12t14.flac
     4:59.00       52743644 B   ---   --   ---xx   flac  0.5284  dbt2008-05-12t15.flac
     7:38.41       80887676 B   ---   --   ---xx   flac  0.4896  dbt2008-05-12t16.flac
     5:48.63       61535420 B   ---   --   ---xx   flac  0.5889  dbt2008-05-12t17.flac
    11:54.46      126057836 B   ---   --   ---xx   flac  0.5094  dbt2008-05-12t18.flac
     1:55.50       20403644 B   ---   --   ---xx   flac  0.4535  dbt2008-05-12t19.flac
     6:09.32       65166908 B   ---   --   ---xx   flac  0.4650  dbt2008-05-12t20.flac
     6:33.00       69325244 B   ---   --   ---xx   flac  0.5765  dbt2008-05-12t21.flac
     5:29.50       58153244 B   ---   --   ---xx   flac  0.5919  dbt2008-05-12t22.flac
     6:03.20       64080284 B   ---   --   ---xx   flac  0.6243  dbt2008-05-12t23.flac
   118:24.58     1253283028 B                            0.5361  (23 files)

Show Checksums
ffp
dbt2008-05-12t01.flac:c8718237342ce77e30d565b629fa6474
dbt2008-05-12t02.flac:5e8d8e7526026df0db1bdc5002b9a735
dbt2008-05-12t03.flac:45960933ab1669eaf8c5b5fbe60ba99b
dbt2008-05-12t04.flac:4fa761d2d6364752a67260625dfc85b3
dbt2008-05-12t05.flac:00f15c96441dddb3e3bf916baf7e1472
dbt2008-05-12t06.flac:4c2e7c8e267d5cc22577aa6dc35f8367
dbt2008-05-12t07.flac:e71a3fa09751249b2b20bc21d5a5653b
dbt2008-05-12t08.flac:e4c44a678d1ed8ea2bad480497672271
dbt2008-05-12t09.flac:a1a6db022ec71b7421f2bda7128eaf6e
dbt2008-05-12t10.flac:09664ea5b669f515c55deeb83fcea921
dbt2008-05-12t11.flac:8bb07189f80d0bedc73d363877162bfe
dbt2008-05-12t12.flac:85c48adfded8847177961d1e058baba9
dbt2008-05-12t13.flac:85413b4ec26f3440be8a724274532300
dbt2008-05-12t14.flac:d44976d95b460cb3c405d8be596412ae
dbt2008-05-12t15.flac:db801cc0f9bfb6db581d218529d9bced
dbt2008-05-12t16.flac:b607c26105dfa923698cfbb771c215ed
dbt2008-05-12t17.flac:dc880c5416f45186649c8db96442f968
dbt2008-05-12t18.flac:d3875eca74ed93800299f6a8e3c22e58
dbt2008-05-12t19.flac:ce25dd6362467c889798b8b445de2f8a
dbt2008-05-12t20.flac:0b2c9fb7e2f1b9630e1777566017c712
dbt2008-05-12t21.flac:345d72790e29f9b140b1c18ab36f479f
dbt2008-05-12t22.flac:7dcce3f1242b72944b8f0df37f9ef487
dbt2008-05-12t23.flac:0e6b3831cb0c5f79a5a921782fb76a67

Comments
Add Comment
Date User Comment