Browse Collections Artists Sources   Search Dates

Add Show    List Management    Help


Drive-By Truckers 09/18/08
Amos' Southend, Charlotte, NC
Comments Add Comment    Source Collectors    Add to Collection    Add to Want List    History
Source # 107852 Other Sources
Entered by
Checksums ffp
Disc Counts 2 / 2
Media Size
Date Circulated
Date Added
05/22/10
05/22/2010
Source Summary 16 bit Source: Neumann ak40 > lc3 > km100 (din) > Lunatec V3 > Tascam HD-P2 @ 24/48
Location: directly in front of soundboard DFC
Transfer: compact flash card > PC > wavelab 5.01b > cd wave > traders little helper (flac level 8)
Recorded and transferred by Gordon Wilson 
  Archive
Source Information - Download Text | Download Zip
Drive-By Truckers
09/18/2008
Amos' Southend
Charlotte, NC

source:   Neumann ak40 > lc3 > km100 (din) > Lunatec V3 > Tascam HD-P2 @ 24/48
location: directly in front of soundboard DFC
transfer: compact flash card > PC > wavelab 5.01b > cd wave > traders little helper (flac level 8)

all editing (fades at beginning and end of set, resampled w/ resampler 192, dither w/ iZotope Ozone 3) done in wavelab 5.01b

*16bit/44.1khz fileset*

recorded and transferred by Gordon Wilson


1. Intro
2. 3 Dimes Down
3. That Man I Shot
4. One of These Days
5. My Sweet Annette
6. The Night G.G. Allen Came to Town
7. Women Without Whiskey
8. I'm Sorry Huston
9. Righteous Path
10. A Ghost to Most
11. Sinkhole
12. Hell No I Ain't Happy
13. Gravity's Gone
14. Home Field Advantage
15. Ronnie and Neil
16. Self Destructive Zones
17. You and Your Crystal Meth
18. Goode's Field Road
19. Marry Me
20. Ain't Talking 'Bout Love
21. Let There Be Rock

Encore:
22. Zip City
23. Puttin' People on the Moon
24. Rockin' in the Free World
25. Buttholeville >
26. StateTrooper >
27. Buttholeville

suggested disc split after track 16

shntool 3.0.4
Copyright (C) 2000-2007 Jason Jordan

    length     expanded size    cdr  WAVE problems  fmt   ratio  filename
     1:31.10       16075964 B   ---   --   ---xx   flac  0.4672  dbt2008-09-18t01.flac
     3:11.71       33859436 B   ---   --   ---xx   flac  0.5515  dbt2008-09-18t02.flac
     5:32.24       58621292 B   ---   --   ---xx   flac  0.5805  dbt2008-09-18t03.flac
     5:24.05       57165404 B   ---   --   ---xx   flac  0.5532  dbt2008-09-18t04.flac
     4:25.09       46767212 B   ---   --   ---xx   flac  0.5142  dbt2008-09-18t05.flac
     5:48.64       61537772 B   ---   --   ---xx   flac  0.5128  dbt2008-09-18t06.flac
     4:37.54       48989852 B   ---   --   ---xx   flac  0.5517  dbt2008-09-18t07.flac
     3:16.60       34715564 B   ---   --   ---xx   flac  0.4910  dbt2008-09-18t08.flac
     4:21.42       46139228 B   ---   --   ---xx   flac  0.6045  dbt2008-09-18t09.flac
     4:32.64       48131372 B   ---   --   ---xx   flac  0.5615  dbt2008-09-18t10.flac
     4:31.20       47851484 B   ---   --   ---xx   flac  0.5689  dbt2008-09-18t11.flac
     6:12.08       65639660 B   ---   --   ---xx   flac  0.5627  dbt2008-09-18t12.flac
     4:04.44       43145132 B   ---   --   ---xx   flac  0.5412  dbt2008-09-18t13.flac
     4:28.37       47362268 B   ---   --   ---xx   flac  0.5557  dbt2008-09-18t14.flac
     5:31.71       58555436 B   ---   --   ---xx   flac  0.5833  dbt2008-09-18t15.flac
     4:02.55       42818204 B   ---   --   ---xx   flac  0.5868  dbt2008-09-18t16.flac
     5:44.73       60853340 B   ---   --   ---xx   flac  0.5297  dbt2008-09-18t17.flac
     5:20.63       56596220 B   ---   --   ---xx   flac  0.5198  dbt2008-09-18t18.flac
     5:51.25       61975244 B   ---   --   ---xx   flac  0.6040  dbt2008-09-18t19.flac
     3:19.02       35108348 B   ---   --   ---xx   flac  0.5934  dbt2008-09-18t20.flac
    13:12.50      139826444 B   ---   --   ---xx   flac  0.5093  dbt2008-09-18t21.flac
     5:27.38       57772220 B   ---   --   ---xx   flac  0.5322  dbt2008-09-18t22.flac
     7:05.33       75047660 B   ---   --   ---xx   flac  0.5425  dbt2008-09-18t23.flac
     6:13.70       65961884 B   ---   --   ---xx   flac  0.5939  dbt2008-09-18t24.flac
     3:40.19       38852732 B   ---   --   ---xx   flac  0.5434  dbt2008-09-18t25.flac
     2:43.21       28802636 B   ---   --   ---xx   flac  0.5394  dbt2008-09-18t26.flac
     2:42.56       28708556 B   ---   --   ---xx   flac  0.5711  dbt2008-09-18t27.flac
   132:55.38     1406880564 B                            0.5504  (27 files)
Show Checksums
ffp
dbt2008-09-18t01.flac:e5e4afe656f800558b1ea742326c8c95
dbt2008-09-18t02.flac:b90d2f843266022c51548e888f0af8ec
dbt2008-09-18t03.flac:9f96536166d720dfbb98e259f5bcc6bb
dbt2008-09-18t04.flac:96189ebc88837c14e375d4deffdb9db7
dbt2008-09-18t05.flac:65b45c8ddb428eea615c42ef33af651e
dbt2008-09-18t06.flac:0269d642017ec3842d77a13d87e33e22
dbt2008-09-18t07.flac:76c0cc733c3ba938ad23f0396636fbfd
dbt2008-09-18t08.flac:a907fdcc2be5abad7c0050b28c579d18
dbt2008-09-18t09.flac:18558506936335b4e31da98e769247b3
dbt2008-09-18t10.flac:5abb1226792c93b77f5fbc33c82977a6
dbt2008-09-18t11.flac:4e1fd0a76a4f74d507df923aff867787
dbt2008-09-18t12.flac:d8994284c1195c8532f76fc94ea97c55
dbt2008-09-18t13.flac:1eda83d41be7c86c40ce34242c80ceff
dbt2008-09-18t14.flac:4ac233a8b683245b0ef106d46abb05d9
dbt2008-09-18t15.flac:a70d13063cebffd2d25aa7a1a740c7c4
dbt2008-09-18t16.flac:9dd6689faa71efc8a4389e7a03550506
dbt2008-09-18t17.flac:93ab296de1c2efa1c7ac0e6d6cc5fa40
dbt2008-09-18t18.flac:1aa8f42ed8bfd86973f0270c58399882
dbt2008-09-18t19.flac:2d90e38cab51ead7c2b9976f31475998
dbt2008-09-18t20.flac:bd052ae573fddce50d5934e564ce7675
dbt2008-09-18t21.flac:95a7c45efd102dc758c497db5dcacae0
dbt2008-09-18t22.flac:5841061c9768397a61cca821b636df83
dbt2008-09-18t23.flac:f05d9dced4157b445974bc8373e95b6b
dbt2008-09-18t24.flac:3031dc7b6b7b2379e4f115749586f72e
dbt2008-09-18t25.flac:ad4e284c1ae8191468aef2cbb39753be
dbt2008-09-18t26.flac:14fed1fab4e2b6d30f4770328ebbc1ac
dbt2008-09-18t27.flac:8dbcb44eccd27aa6f1a84ef4b8d9c5d1

Comments
Add Comment
Other Sources (comments)
24 bit Source:... (0)
Date User Comment