Browse Collections Artists Sources   Search Dates

Add Show    List Management    Help


Jerry Garcia Band 07/24/80
Bushnell Auditorium, Hartford, CT
Comments Add Comment    Source Collectors    Add to Collection    Add to Want List    History
Source # 108003 Other Sources
Entered by Joe Jupille
Checksums ffp
Disc Counts 0 / 0
Media Size
Date Circulated
Date Added
06/01/2010
05/31/2010
Source Summary flac 2448: MAC > 1st Gen cassettes; Transfer: Maxell UD-XLIIs > Nakamichi CR5A > Edirol FA-66 > Wavelab > CD-Wave > TLH > FLAC 2448 Tagged. Transfer by Andrew F. 
Source Information - Download Text | Download Zip
JERRY GARCIA BAND
Bushnell Auditorium
Hartford CT
07-24-1980

24bit/48kHz file-set

s1t01 crowd & tuning
s1t02 Sugaree
s1t03 That's What Love Will Make You Do
s1t04 Friend of the Devil
s1t05 Simple Twist of Fate
s1t06 Tangled Up in Blue

s2t01 crowd & tuning
s2t02 I'll Take a Melody
s2t03 Sitting in Limbo
s2t04 Russian Lullaby >
s2t05 Mystery Train
s2t06 crowd & tuning
s2t07 Mission in the Rain >
s2t08 Midnight Moonlight
s2t09 Encore: Dear Prudence

Source: AUD, MAC > 1st Gen cassettes (see notes).

Transfer: Maxell UD-XLIIs > Nakamichi CR5A > Edirol
FA-66 > Wavelab > CD-Wave > TLH > FLAC 2448 Tagged.
Transfer by Andrew F. 06/2010

Notes: THANKS to Tim Friend for the 1st Gen cassettes.
Tim notes he copied the master tapes two days after the
show, however, he cannot recall the taper or equipment
that was used. This source does NOT match the Jim Wise
recording (IDs 4427, 21536, and 77929). Some mics and
levels adjustements near start of Sugaree and Melody.
ID-77929 patch in Sugaree 2:01 > 2:14.

    length     expanded size    cdr  WAVE problems  fmt   ratio  filename
     0:23.133       6662444 B   cxx   --   ---xx   flac  0.6999  jgb1980-07-24s1t01.flac
    14:49.960     256308524 B   cxx   --   ---xx   flac  0.7271  jgb1980-07-24s1t02.flac
    12:37.200     218073644 B   cxx   --   ---xx   flac  0.7212  jgb1980-07-24s1t03.flac
     9:12.040     158987564 B   cxx   --   ---xx   flac  0.7073  jgb1980-07-24s1t04.flac
    14:48.533     255897644 B   cxx   --   ---xx   flac  0.7343  jgb1980-07-24s1t05.flac
    10:40.376     184428272 B   cxx   --   ---xx   flac  0.7526  jgb1980-07-24s1t06.flac
     1:07.587      19465004 B   cxx   --   ---xx   flac  0.6979  jgb1980-07-24s2t01.flac
    14:09.707     244715564 B   cxx   --   ---xx   flac  0.7506  jgb1980-07-24s2t02.flac
    12:31.240     216357164 B   cxx   --   ---xx   flac  0.7245  jgb1980-07-24s2t03.flac
    16:14.173     280561964 B   cxx   --   ---xx   flac  0.7099  jgb1980-07-24s2t04.flac
     9:58.587     172393004 B   cxx   --   ---xx   flac  0.7526  jgb1980-07-24s2t05.flac
     0:55.773      16062764 B   cxx   --   ---xx   flac  0.6907  jgb1980-07-24s2t06.flac
    11:57.187     206549804 B   cxx   --   ---xx   flac  0.7213  jgb1980-07-24s2t07.flac
    10:09.213     175453484 B   cxx   --   ---xx   flac  0.7405  jgb1980-07-24s2t08.flac
    10:25.416     180119732 B   cxx   --   ---xx   flac  0.7268  jgb1980-07-24s2t09.flac
   150:00.125    2592036576 B                            0.7297  (15 files)

No errors occured.
Show Checksums
ffp
jgb1980-07-24s1t01.flac:d88d7296063da78cdcbdb09903e0dff9
jgb1980-07-24s1t02.flac:e0d1b280a3dea882f92ecf7a10f2d2e9
jgb1980-07-24s1t03.flac:9cd78317f9d126e59ad4c8e56e6de4af
jgb1980-07-24s1t04.flac:7812687dd4ee564a4abd752144ed19d7
jgb1980-07-24s1t05.flac:9d9cb9bb9c77e9774b988b1ed5710241
jgb1980-07-24s1t06.flac:5b98d1f2ff5d4c29db21e5c92b08ff9c
jgb1980-07-24s2t01.flac:dd6205cabd9ab798e82f246f653823de
jgb1980-07-24s2t02.flac:9cfe04a1c7c79f61b4825c07f1323b47
jgb1980-07-24s2t03.flac:71f308007d752776f67b35b9c97d81b0
jgb1980-07-24s2t04.flac:e2d5a93a99fa68c79548bbe32a26a3de
jgb1980-07-24s2t05.flac:b227211c7be92dd4c44978fae8e0a4f0
jgb1980-07-24s2t06.flac:e24171a03c3e6f7446fd9db6bef98b3f
jgb1980-07-24s2t07.flac:16ebda50de0319be5510ea8a52244db4
jgb1980-07-24s2t08.flac:ff97104a12866c53a8d5861887a6d47f
jgb1980-07-24s2t09.flac:6833aa7cf4d61636e7d15c238fed4d22

Comments
Add Comment
Other Sources (comments)
flac1644; MAC > 1st Gen... (0)
Date User Comment
05/28/2011 mgoldey Rather a lot of audience noise in this recording.