Browse Collections Artists Sources   Search Dates

Add Show    List Management    Help


Jerry Garcia Band 07/24/80
Bushnell Auditorium, Hartford, CT
Comments Add Comment    Source Collectors    Add to Collection    Add to Want List    History
Source # 108004 Other Sources
Entered by Joe Jupille
Checksums ffp
Disc Counts 2 / 2
Media Size
Date Circulated
Date Added
06/01/2010
05/31/2010
Source Summary flac1644; MAC > 1st Gen cassettes; Transfer: Maxell UD-XLIIs > Nakamichi CR5A > Edirol FA-66 > Wavelab > R8Brain > CD-Wave > TLH > FLAC 1644. Tagged. Transfer by Andrew F. 
Source Information - Download Text | Download Zip
JERRY GARCIA BAND
Bushnell Auditorium
Hartford CT
07-24-1980

16bit/44.1kHz file-set

s1t01 crowd & tuning
s1t02 Sugaree
s1t03 That's What Love Will Make You Do
s1t04 Friend of the Devil
s1t05 Simple Twist of Fate
s1t06 Tangled Up in Blue

s2t01 crowd & tuning
s2t02 I'll Take a Melody
s2t03 Sitting in Limbo
s2t04 Russian Lullaby >
s2t05 Mystery Train
s2t06 crowd & tuning
s2t07 Mission in the Rain >
s2t08 Midnight Moonlight
s2t09 Encore: Dear Prudence

Source: AUD, MAC > 1st Gen cassettes (see notes).

Transfer: Maxell UD-XLIIs > Nakamichi CR5A > Edirol
FA-66 > Wavelab > R8Brain > CD-Wave > TLH > FLAC 1644
Tagged. Transfer by Andrew F. 06/2010

Notes: THANKS to Tim Friend for the 1st Gen cassettes.
Tim notes he copied the master tapes two days after the
show, however, he cannot recall the taper or equipment
that was used. This source does NOT match the Jim Wise
recording (IDs 4427, 21536, and 77929). Some mics and
levels adjustements near start of Sugaree and Melody.
ID-77929 patch in Sugaree 2:01 > 2:14.

CDRs: D1 s1t01 > s2t02, D2 s2t03 > s2t09.

    length     expanded size    cdr  WAVE problems  fmt   ratio  filename
     0:23.10        4080764 B   ---   --   ---xx   flac  0.5795  jgb1980-07-24s1t01.flac
    14:49.72      156988988 B   ---   --   ---xx   flac  0.6110  jgb1980-07-24s1t02.flac
    12:37.15      133570124 B   ---   --   ---xx   flac  0.6014  jgb1980-07-24s1t03.flac
     9:12.03       97379900 B   ---   --   ---xx   flac  0.5776  jgb1980-07-24s1t04.flac
    14:48.40      156737324 B   ---   --   ---xx   flac  0.6248  jgb1980-07-24s1t05.flac
    10:40.28      112961900 B   ---   --   ---xx   flac  0.6560  jgb1980-07-24s1t06.flac
     1:07.44       11922332 B   ---   --   ---xx   flac  0.5725  jgb1980-07-24s2t01.flac
    14:09.53      149888300 B   ---   --   ---xx   flac  0.6519  jgb1980-07-24s2t02.flac
    12:31.18      132518780 B   ---   --   ---xx   flac  0.6069  jgb1980-07-24s2t03.flac
    16:14.13      171844220 B   ---   --   ---xx   flac  0.5816  jgb1980-07-24s2t04.flac
     9:58.44      105590732 B   ---   --   ---xx   flac  0.6536  jgb1980-07-24s2t05.flac
     0:55.58        9838460 B   ---   --   ---xx   flac  0.5474  jgb1980-07-24s2t06.flac
    11:57.15      126514124 B   ---   --   ---xx   flac  0.6020  jgb1980-07-24s2t07.flac
    10:09.15      107462924 B   ---   --   ---xx   flac  0.6355  jgb1980-07-24s2t08.flac
    10:25.32      110325308 B   ---   --   ---xx   flac  0.6121  jgb1980-07-24s2t09.flac
   150:00.10     1587624180 B                            0.6161  (15 files)

No errors occured.
Show Checksums
ffp
jgb1980-07-24s1t01.flac:dc9f9eb6393c40a21faa45222413d853
jgb1980-07-24s1t02.flac:0651573909b422477214b4cfbf93cc77
jgb1980-07-24s1t03.flac:2557a81974cc1a31021edd83f2a1ad7b
jgb1980-07-24s1t04.flac:53fcd5aec42a26f070298fec5f6bdcb6
jgb1980-07-24s1t05.flac:163d2f9409275486dc483c1c3c367d6f
jgb1980-07-24s1t06.flac:f572ca57c8a01f0119db53b9bf1029f5
jgb1980-07-24s2t01.flac:4a5787ba69b9d9977ac77885009970e1
jgb1980-07-24s2t02.flac:31a3b614072ba2c8c968f8df2eee9cf2
jgb1980-07-24s2t03.flac:36644fade475f47e4b144d76b2ee1dea
jgb1980-07-24s2t04.flac:251a9196f4c07b678e236d9151d939a6
jgb1980-07-24s2t05.flac:8daba692a506e8900a7b8812a6559332
jgb1980-07-24s2t06.flac:3641f9462bbc2771dee872bc64b538fd
jgb1980-07-24s2t07.flac:7d9c7481304c37efdaabb3002a9e52de
jgb1980-07-24s2t08.flac:952e06bb377d683f50b34201674ade4c
jgb1980-07-24s2t09.flac:96cde15bc6c82013d63c68e0a02fac2f

Comments
Add Comment
Other Sources (comments)
flac 2448: MAC > 1st Gen... (1)
Date User Comment