Browse Collections Artists Sources   Search Dates Setlists

Add Show    List Management    Forums    Help


Grateful Dead 03/28/69
Student Center, Modesto Jr. College, Modesto, CA
Comments Add Comment    Source Collectors    Add to Collection    Add to Want List    History
Source # 108057 Other Sources
Entered by Gary Field
Checksums flac-md5 , ffp , orig-flac-md5
Disc Counts 1 / 2
Media Size
Date Circulated
Date Added
06/05/2010
06/05/2010
Source Summary flac16; Source: Master Soundboard Cassette Medium Stock Brands: Master Cassette ampex c120 Analog Lineage: SBD >> Unknown Deck >> MSC Analog Sound Preservation: MSC >> Nakamichi CR7a => Korg MR-1000 >> DSF [1-bit 5.6448 MHz Stereo] >> Korg MR-1000 => Korg AudioGate >> WAV [24/96] Taped By: Bear Transfer By: Bob Menke Mastering By: David Minches, Derek McCabe (This source was originally seeded with errors in the tags. Please don't circulate the original fileset.) 
  Archive
Source Information - Download Text | Download Zip
MOTB Release: 0123 16/44.1
Release Date: 2010-06-04
Band: Grateful Dead
Date: 1969-03-28 (Sunday)
Venue: Student Center
Location: Modesto, CA
Analog Soundboard Source: Master Soundboard Cassette (MSC)
Medium Stock Brands: Master Cassette ampex c120
Analog Lineage: SBD >> Unknown Deck >> MSC
Analog Sound Preservation: MSC >> Nakamichi CR7a => Korg MR-1000 >> DSF [1-bit 5.6448 MHz Stereo] >> Korg MR-1000 => Korg AudioGate >> WAV [24/96]
Taped By: Bear
Transfer By: Bob Menke
Mastering By: David Minches, Derek McCabe


Disc One

Set 1:
d1t01: //Good Morning Little Schoolgirl
d1t02: Dark Star >
d1t03: St. Stephen >
d1t04: The Eleven >
d1t05: Death Don't Have No Mercy

Disc Two

d2t01: Turn On Your Lovelight

Set 2:
d2t02: Cryptical Envelopment >
d2t03: Drums >
d2t04: The Other One >
d2t05: Cryptical Envelopment



Notes:  * patch from SH ID 81543 for tape flip at the end of "The Eleven" going into "Death"
        Pitch correction by Joe B. Jones



length     expanded size    cdr  WAVE problems  fmt   ratio  filename
    13:02.65      138097724 B   ---   --   ---xx   flac  0.4777  gd1969-03-28d1t01.flac
    22:55.32      242625308 B   ---   --   ---xx   flac  0.4728  gd1969-03-28d1t02.flac
     6:11.46       65552636 B   ---   --   ---xx   flac  0.4818  gd1969-03-28d1t03.flac
    15:30.63      164200220 B   ---   --   ---xx   flac  0.4989  gd1969-03-28d1t04.flac
     9:51.25      104311244 B   ---   --   ---xx   flac  0.4616  gd1969-03-28d1t05.flac
    24:33.18      259879580 B   ---   --   ---xx   flac  0.4736  gd1969-03-28d2t01.flac
     2:07.05       22414604 B   ---   --   ---xx   flac  0.4565  gd1969-03-28d2t02.flac
     0:17.68        3158780 B   ---   --   ---xx   flac  0.4278  gd1969-03-28d2t03.flac
     8:50.38       93581420 B   ---   --   ---xx   flac  0.5131  gd1969-03-28d2t04.flac
    11:16.70      119411084 B   ---   --   ---xx   flac  0.4763  gd1969-03-28d2t05.flac
   114:37.55     1213232600 B                            0.4796  (10 files)
Show Checksums
flac-md5
b8a0a7a50e4f21ee1acf039b24563883 *gd1969-03-28d1t01.flac
d91a12cb1a3d642135e66c3a699d9ef1 *gd1969-03-28d1t02.flac
47d2e8e9dbb460143b92b95e0ed6b6c0 *gd1969-03-28d1t03.flac
73e11a49b2d3d202c8a468d57fd92ff1 *gd1969-03-28d1t04.flac
109cffc1c5d44b21662b3fe42d3037c8 *gd1969-03-28d1t05.flac
84557cd449e8c4566be7eb28fa60f188 *gd1969-03-28d2t01.flac
3490d6b0a638d822e2dd6e5c58ff0817 *gd1969-03-28d2t02.flac
d9e7e09eb1b27b2fb3b388113a9aa82c *gd1969-03-28d2t03.flac
770244e3920eb9f44e3a01cd11fab6d9 *gd1969-03-28d2t04.flac
6fa5d62411f18336987a125e823307ec *gd1969-03-28d2t05.flac
ffp
gd1969-03-28d1t01.flac:8bd37c8faaf3dfd4051dfa4cd6487f69
gd1969-03-28d1t02.flac:19f1546047f05182756bc21c7511e3bf
gd1969-03-28d1t03.flac:5546323dab2f1cbdc4f6440a1da34549
gd1969-03-28d1t04.flac:575ba072166d531f1c4c11c20bf8be53
gd1969-03-28d1t05.flac:b1e3d163e09b4451d63196b71c10d764
gd1969-03-28d2t01.flac:c4922e4864942753f21f402e4549cfc8
gd1969-03-28d2t02.flac:e7762115cac60499b01c851e07d75a43
gd1969-03-28d2t03.flac:b1b095c11114d3da6fa3e24e5c79c497
gd1969-03-28d2t04.flac:7011267d5f85c3e4a74721ccf743df22
gd1969-03-28d2t05.flac:84c38c007ebec4fdc4c437fcb07d1d96
orig-flac-md5
70936e63e83e5568e1f1905d073f21b2 *gd1969-03-28d1t01.flac
848877900ceb0b8d3ebca5fa81afe50a *gd1969-03-28d1t02.flac
ac7ca24982ba928adf713fff31028050 *gd1969-03-28d1t03.flac
d7a634b5126c127aefc94bad792ea6e8 *gd1969-03-28d1t04.flac
229bcc22379cc62b040ab10f25ad1b56 *gd1969-03-28d1t05.flac
534e3799e34f2fba5bab2e2b5d250c73 *gd1969-03-28d2t01.flac
b9ff2b2c3b9f737c08419817bcf6c568 *gd1969-03-28d2t02.flac
710c17b24c93a40b7b08abc7ca8593e1 *gd1969-03-28d2t03.flac
cfdb1879497d9332154bb648871f4b47 *gd1969-03-28d2t04.flac
effdc03aff3d5637e13cc17550c08779 *gd1969-03-28d2t05.flac

Comments
Add Comment
Other Sources (comments)
MSR> C> D> CD; via Frank Bove (0) flac16; Recording... (1) flac24; SBD >>... (0) flac16; Recording... (0) flac16; Recording... (0)
Date User Comment