Browse Collections Artists Sources   Search Dates

Add Show    List Management    Help


Grateful Dead 12/30/83
San Francisco Civic Auditorium, San Francisco, CA
Comments Add Comment    Source Collectors    Add to Collection    Add to Want List    History
Source # 109129 Other Sources
Entered by Matt Vernon
Checksums ffp , flac-md5
Disc Counts 0 / 0
Media Size
Date Circulated
Date Added
08/01/2010
07/31/2010
Source Summary flac24; AUD: Sennheiser MD-441's > patched out of Nak 550 > Marantz PMD-340 > Sony UCX-S 90's. FOB 25 feet from stage in center. Transfer: MAC > Nakamichi DR-2 > Edirol FA-66 > Wavelab 2496 > CD-Wave > TLH > FLAC 2496 Tagged. Taped and transferred by Andrew F. 07/2010  
  Archive
Source Information - Download Text | Download Zip
GRATEFUL DEAD
Civic Auditorium
San Francisco CA
Date: 12-30-1983

file-set 24bit/96kHz
s1t01 Bertha >
s1t02 Greatest Story Ever Told
s1t03 Friend of the Devil
s1t04 Me & My Uncle >
s1t05 Big River
s1t06 Ramble on Rose
s1t07 Little Red Rooster
s1t08 Brown Eyed Women
s1t09 Looks Like Rain >
s1t10 Deal

s2t01 Shakedown Street
s2t02 Women Are Smarter
s2t03 Terrapin >
s2t04 Drums >
s2t05 Space > Mind Left Body >
s2t06 Truckin' >
s2t07 Wharf Rat >
s2t08 Good Lovin'
s2t09 Encore: Keep Your Day Job

AUD: Sennheiser MD-441's > patched out of Nak 550 > Marantz
PMD-340 > Sony UCX-S 90's. FOB 25 feet from stage in center.

Transfer: MAC > Nakamichi DR-2 > Edirol FA-66 > Wavelab 2496 >
CD-Wave > TLH > FLAC 2496 Tagged. Taped and transferred by
Andrew F. 07/2010

Notes: This is the same recording as ID-30072, fresh transfer
with improvements... The tape spools were re-shelled into Maxell
cases for smoother playback. Transferred in 2496. Pitch adjusted.
Drop-outs and levels repaired. Tape pauses cleaned-up with cross
fades. Patches added from ID-77321 making the show seamless.

042a122084833b0f59f552d827d61942 *gd1983-12-30s1t01.flac
b14139337a05c8f08ffa6cdd42a1f243 *gd1983-12-30s1t02.flac
866e0145ffd7a5c2c7a18a3efcb8e8c0 *gd1983-12-30s1t03.flac
1087f25cad1bba0f243a9a486d676464 *gd1983-12-30s1t04.flac
1d45fa19e98f6d863a5b4d2cf4fe8720 *gd1983-12-30s1t05.flac
22b7f009800c01daf4b753a0e9d42c48 *gd1983-12-30s1t06.flac
f2fa99e1c9643f4dfeda8eeac5062e9b *gd1983-12-30s1t07.flac
17a6bc0633195fdaf35a1f3746689a03 *gd1983-12-30s1t08.flac
53f00128c04576a2d7c30f84c04c0c18 *gd1983-12-30s1t09.flac
7b80c5f927cf0d63d65d56e15483bc60 *gd1983-12-30s1t10.flac
0fae404a251f098fa188454cabf43fc6 *gd1983-12-30s2t01.flac
bfebc936f42c24d5f480602d65e70b67 *gd1983-12-30s2t02.flac
0db6cca4d5711881cc9d5d21cbfff504 *gd1983-12-30s2t03.flac
38ea4db6c4daff6e82c95000b0360a2b *gd1983-12-30s2t04.flac
b708bc13ae4bd1c16d2b6c4a44417e34 *gd1983-12-30s2t05.flac
3bf948c7089aacc8704e04d468d9a584 *gd1983-12-30s2t06.flac
a0e0045fd059b0635c0321cec011a455 *gd1983-12-30s2t07.flac
4bb1d81c5e80ed6ae34278ec7a5cfeec *gd1983-12-30s2t08.flac
c616c7cf34ee62cb338b2aa297e05fbb *gd1983-12-30s2t09.flac

gd1983-12-30s1t01.flac:bad9b9b07223d4cc5650d4086a034d3f
gd1983-12-30s1t02.flac:355a046e7286b81e76b48cbb831e03ef
gd1983-12-30s1t03.flac:08142b95cc221d4a4ebfbfc4f31db0f8
gd1983-12-30s1t04.flac:4952674bf74dc443d169840b269d78d5
gd1983-12-30s1t05.flac:76718d045ae4cbaca750fe8f223490aa
gd1983-12-30s1t06.flac:093a3d3e6964e90565a8981bbf0379c4
gd1983-12-30s1t07.flac:e6c18cfd2794326e7152e4d7a7a8f0f7
gd1983-12-30s1t08.flac:afa8900f64e06026099ae4eff665671a
gd1983-12-30s1t09.flac:2f9804191bf74dc22833f68495ae2b4b
gd1983-12-30s1t10.flac:0a2e2e9f5f34d20b160d23ef040783cf
gd1983-12-30s2t01.flac:8d8c8c07b708efb6b147bc927b96d0cf
gd1983-12-30s2t02.flac:afd4b81f2140a8d5e63b31b1ce466687
gd1983-12-30s2t03.flac:1e6c8ab639ed0bf440f0ba57b59acfdc
gd1983-12-30s2t04.flac:630ae23518e53b8cdfec39279b068713
gd1983-12-30s2t05.flac:a6ee7b418f2a52e5af959efb50f7a99d
gd1983-12-30s2t06.flac:5f763ac1151fba23279e9c427021aca6
gd1983-12-30s2t07.flac:5435d7cb8b7351644a5589a50b9ac371
gd1983-12-30s2t08.flac:8c3add5c72a9c466be703b2d44efdcca
gd1983-12-30s2t09.flac:cd85acc13f55565fc2a39799ee8d1c1c

    length     expanded size    cdr  WAVE problems  fmt   ratio  filename
     7:17.627     252073004 B   cxx   --   ---xx   flac  0.6587  gd1983-12-30s1t01.flac
     4:00.987     138808364 B   cxx   --   ---xx   flac  0.6553  gd1983-12-30s1t02.flac
     9:29.373     327959084 B   cxx   --   ---xx   flac  0.6463  gd1983-12-30s1t03.flac
     2:57.040     101975084 B   cxx   --   ---xx   flac  0.6514  gd1983-12-30s1t04.flac
     5:41.000     196416044 B   cxx   --   ---xx   flac  0.6601  gd1983-12-30s1t05.flac
     7:03.733     244070444 B   cxx   --   ---xx   flac  0.6541  gd1983-12-30s1t06.flac
     9:15.988     320249318 B   cxx   --   ---xx   flac  0.6544  gd1983-12-30s1t07.flac
     5:09.507     178275884 B   cxx   --   ---xx   flac  0.6565  gd1983-12-30s1t08.flac
     7:26.853     257387564 B   cxx   --   ---xx   flac  0.6423  gd1983-12-30s1t09.flac
     7:49.838     270626636 B   cxx   --   ---xx   flac  0.6627  gd1983-12-30s1t10.flac
    14:21.573     496266284 B   cxx   --   ---xx   flac  0.6472  gd1983-12-30s2t01.flac
     8:13.573     284298284 B   cxx   --   ---xx   flac  0.6529  gd1983-12-30s2t02.flac
    12:01.080     415342124 B   cxx   --   ---xx   flac  0.6425  gd1983-12-30s2t03.flac
     7:54.987     273592364 B   cxx   --   ---xx   flac  0.6080  gd1983-12-30s2t04.flac
     8:27.363     292240952 B   cxx   --   ---xx   flac  0.5959  gd1983-12-30s2t05.flac
     8:17.427     286517804 B   cxx   --   ---xx   flac  0.6530  gd1983-12-30s2t06.flac
    10:01.720     346590764 B   cxx   --   ---xx   flac  0.6457  gd1983-12-30s2t07.flac
     7:59.640     276272684 B   cxx   --   ---xx   flac  0.6579  gd1983-12-30s2t08.flac
     4:38.104     160188152 B   cxx   --   ---xx   flac  0.6437  gd1983-12-30s2t09.flac
   148:07.413    5119150838 B                            0.6458  (19 files)

No errors occured.
Show Checksums
ffp
gd1983-12-30s1t01.flac:bad9b9b07223d4cc5650d4086a034d3f
gd1983-12-30s1t02.flac:355a046e7286b81e76b48cbb831e03ef
gd1983-12-30s1t03.flac:08142b95cc221d4a4ebfbfc4f31db0f8
gd1983-12-30s1t04.flac:4952674bf74dc443d169840b269d78d5
gd1983-12-30s1t05.flac:76718d045ae4cbaca750fe8f223490aa
gd1983-12-30s1t06.flac:093a3d3e6964e90565a8981bbf0379c4
gd1983-12-30s1t07.flac:e6c18cfd2794326e7152e4d7a7a8f0f7
gd1983-12-30s1t08.flac:afa8900f64e06026099ae4eff665671a
gd1983-12-30s1t09.flac:2f9804191bf74dc22833f68495ae2b4b
gd1983-12-30s1t10.flac:0a2e2e9f5f34d20b160d23ef040783cf
gd1983-12-30s2t01.flac:8d8c8c07b708efb6b147bc927b96d0cf
gd1983-12-30s2t02.flac:afd4b81f2140a8d5e63b31b1ce466687
gd1983-12-30s2t03.flac:1e6c8ab639ed0bf440f0ba57b59acfdc
gd1983-12-30s2t04.flac:630ae23518e53b8cdfec39279b068713
gd1983-12-30s2t05.flac:a6ee7b418f2a52e5af959efb50f7a99d
gd1983-12-30s2t06.flac:5f763ac1151fba23279e9c427021aca6
gd1983-12-30s2t07.flac:5435d7cb8b7351644a5589a50b9ac371
gd1983-12-30s2t08.flac:8c3add5c72a9c466be703b2d44efdcca
gd1983-12-30s2t09.flac:cd85acc13f55565fc2a39799ee8d1c1c
flac-md5
042a122084833b0f59f552d827d61942 *gd1983-12-30s1t01.flac
b14139337a05c8f08ffa6cdd42a1f243 *gd1983-12-30s1t02.flac
866e0145ffd7a5c2c7a18a3efcb8e8c0 *gd1983-12-30s1t03.flac
1087f25cad1bba0f243a9a486d676464 *gd1983-12-30s1t04.flac
1d45fa19e98f6d863a5b4d2cf4fe8720 *gd1983-12-30s1t05.flac
22b7f009800c01daf4b753a0e9d42c48 *gd1983-12-30s1t06.flac
f2fa99e1c9643f4dfeda8eeac5062e9b *gd1983-12-30s1t07.flac
17a6bc0633195fdaf35a1f3746689a03 *gd1983-12-30s1t08.flac
53f00128c04576a2d7c30f84c04c0c18 *gd1983-12-30s1t09.flac
7b80c5f927cf0d63d65d56e15483bc60 *gd1983-12-30s1t10.flac
0fae404a251f098fa188454cabf43fc6 *gd1983-12-30s2t01.flac
bfebc936f42c24d5f480602d65e70b67 *gd1983-12-30s2t02.flac
0db6cca4d5711881cc9d5d21cbfff504 *gd1983-12-30s2t03.flac
38ea4db6c4daff6e82c95000b0360a2b *gd1983-12-30s2t04.flac
b708bc13ae4bd1c16d2b6c4a44417e34 *gd1983-12-30s2t05.flac
3bf948c7089aacc8704e04d468d9a584 *gd1983-12-30s2t06.flac
a0e0045fd059b0635c0321cec011a455 *gd1983-12-30s2t07.flac
4bb1d81c5e80ed6ae34278ec7a5cfeec *gd1983-12-30s2t08.flac
c616c7cf34ee62cb338b2aa297e05fbb *gd1983-12-30s2t09.flac

Comments
Add Comment
Other Sources (comments)
SBD>MC>DAT>CDR; via Paul B;... (0) flac16; Source:... (0) flac16; SBD ->... (0) flac16; Nakamichi... (0) flac16; Recording... (0) flac16; AUD:... (0) flac16; Source: 2... (0) flac16; Master... (0) flac24; Master... (0) flac16; source: aud... (0) flac24; source: aud... (0)
Date User Comment