Browse Collections Artists Sources   Search Dates

Add Show    List Management    Help


Grateful Dead 12/30/83
San Francisco Civic Auditorium, San Francisco, CA
Comments Add Comment    Source Collectors    Add to Collection    Add to Want List    History
Source # 109130 Other Sources
Entered by Matt Vernon
Checksums ffp , flac-md5
Disc Counts 2 / 2
Media Size
Date Circulated
Date Added
08/01/2010
07/31/2010
Source Summary flac16; AUD: Sennheiser MD-441's > patched out of Nak 550 > Marantz PMD-340 > Sony UCX-S 90's. FOB 25 feet from stage in center. Transfer: MAC > Nakamichi DR-2 > Edirol FA-66 > Wavelab 2496 > R8Brain > CD-Wave > TLH > FLAC 1644 Tagged. Taped & transferred by Andrew F. 07/2010 
  Archive
Source Information - Download Text | Download Zip
GRATEFUL DEAD
Civic Auditorium
San Francisco CA
Date: 12-30-1983

file set: 16bit/44.1kHz

s1t01 Bertha >
s1t02 Greatest Story Ever Told
s1t03 Friend of the Devil
s1t04 Me & My Uncle >
s1t05 Big River
s1t06 Ramble on Rose
s1t07 Little Red Rooster
s1t08 Brown Eyed Women
s1t09 Looks Like Rain >
s1t10 Deal

s2t01 Shakedown Street
s2t02 Women Are Smarter
s2t03 Terrapin >
s2t04 Drums >
s2t05 Space > Mind Left Body >
s2t06 Truckin' >
s2t07 Wharf Rat >
s2t08 Good Lovin'
s2t09 Encore: Keep Your Day Job

AUD: Sennheiser MD-441's > patched out of Nak 550 > Marantz
PMD-340 > Sony UCX-S 90's. FOB 25 feet from stage in center.

Transfer: MAC > Nakamichi DR-2 > Edirol FA-66 > Wavelab 2496 >
R8Brain > CD-Wave > TLH > FLAC 1644 Tagged. Taped & transferred
by Andrew F. 07/2010

Notes: This is the same recording as ID-30072, fresh transfer
with improvements... The tape spools were re-shelled into Maxell
cases for smoother playback. Transferred in 2496. Pitch adjusted.
Drop-outs and levels repaired. Tape pauses cleaned-up with cross
fades. Patches added from ID-77321 making the show seamless.

CDRs: D1 s1t01 > s1t10 plus s2t09, D2 s2t01 > s2t08.

a7acb8f6a1c7fb416d4fb2e8170c2f6c *gd1983-12-30s1t01.flac
233f2c92f3cd2dea4a13a82a90e81f2e *gd1983-12-30s1t02.flac
3f98455b13ad741d22fdba84e608bf59 *gd1983-12-30s1t03.flac
8c3b832988509dc6ad2ad90787eab633 *gd1983-12-30s1t04.flac
ca993dc5dbac14b53aa290aca3f489f1 *gd1983-12-30s1t05.flac
c4243eaa37609d568bf2367b9d408d58 *gd1983-12-30s1t06.flac
bf77e54124c50e1ad3193c3b777ff4e6 *gd1983-12-30s1t07.flac
7bdfecba68c564e33269400209d76da0 *gd1983-12-30s1t08.flac
8eb679e4554c9277348d563b940c7bd4 *gd1983-12-30s1t09.flac
91a301ac9fcd196f32f6005d4fb1b178 *gd1983-12-30s1t10.flac
10ca950eb6c4024fd64b5811dfa60fc6 *gd1983-12-30s2t01.flac
e2a3ae57bb8c8f34b5675ec4e014dbd5 *gd1983-12-30s2t02.flac
2250c7c730303449cd3fbbc5600363d0 *gd1983-12-30s2t03.flac
58b0fbee4d1e6f87d2ca58fb9ecb60a1 *gd1983-12-30s2t04.flac
f5e4b6900aa935f3d56c2c22905999d5 *gd1983-12-30s2t05.flac
3b8cbd7071fbbe7c14fca910c9cae393 *gd1983-12-30s2t06.flac
37eef505ddac8be2307c2cf556437e7e *gd1983-12-30s2t07.flac
702017a709a9ef50045669ab999a3fe6 *gd1983-12-30s2t08.flac
4c091d134fa05afd1c768f568f92a2d4 *gd1983-12-30s2t09.flac

gd1983-12-30s1t01.flac:3b0f5d73971453dbf9159f23ac0808d1
gd1983-12-30s1t02.flac:2085e9cfc6516ac996575c3779dea27c
gd1983-12-30s1t03.flac:899f2b0004430b790593660cedc3f7eb
gd1983-12-30s1t04.flac:bcadee85f554922f6074209c3c0b3a57
gd1983-12-30s1t05.flac:2fc6c6f483c064037d7bcb0ffb7f9184
gd1983-12-30s1t06.flac:d8f68995c23d19ae7ed4926cdb0423cb
gd1983-12-30s1t07.flac:41e3aad4ac387909b76236e6d911c1f2
gd1983-12-30s1t08.flac:172de6dd910d9dee5ef590fb5a117caa
gd1983-12-30s1t09.flac:73ec67da42f2131107226751b4a212e4
gd1983-12-30s1t10.flac:632fdc1bbf8d2147efde9657153334c9
gd1983-12-30s2t01.flac:3a60d9d15108d9d5bf77108ea3b532b8
gd1983-12-30s2t02.flac:f9f0a6bc39a6711b95123828e39d0ce4
gd1983-12-30s2t03.flac:110de0c691e48897b22727df394a1fb8
gd1983-12-30s2t04.flac:e9a1125a51969ccb95d9c6032ee691c3
gd1983-12-30s2t05.flac:3570b644ea3bee3f2c787e8a503b1507
gd1983-12-30s2t06.flac:af4c0e965e0f5511a095372260aa3a14
gd1983-12-30s2t07.flac:dce2217bc7a63e19c3206b772ee2aa79
gd1983-12-30s2t08.flac:6c4f1d11005eabcc56a007daddb33d23
gd1983-12-30s2t09.flac:427b42a29f3224da4b89d9bae94f868f

    length     expanded size    cdr  WAVE problems  fmt   ratio  filename
     7:17.47       77197388 B   ---   --   ---xx   flac  0.6346  gd1983-12-30s1t01.flac
     4:00.74       42510092 B   ---   --   ---xx   flac  0.6253  gd1983-12-30s1t02.flac
     9:29.28      100437500 B   ---   --   ---xx   flac  0.6027  gd1983-12-30s1t03.flac
     2:57.03       31229900 B   ---   --   ---xx   flac  0.6190  gd1983-12-30s1t04.flac
     5:41.00       60152444 B   ---   --   ---xx   flac  0.6386  gd1983-12-30s1t05.flac
     7:03.55       74746604 B   ---   --   ---xx   flac  0.6207  gd1983-12-30s1t06.flac
     9:15.74       98076092 B   ---   --   ---xx   flac  0.6134  gd1983-12-30s1t07.flac
     5:09.38       54597020 B   ---   --   ---xx   flac  0.6235  gd1983-12-30s1t08.flac
     7:26.64       78824972 B   ---   --   ---xx   flac  0.5821  gd1983-12-30s1t09.flac
     7:49.62       82877468 B   ---   --   ---xx   flac  0.6344  gd1983-12-30s1t10.flac
    14:21.43      151981580 B   ---   --   ---xx   flac  0.6119  gd1983-12-30s2t01.flac
     8:13.43       87066380 B   ---   --   ---xx   flac  0.6287  gd1983-12-30s2t02.flac
    12:01.06      127198556 B   ---   --   ---xx   flac  0.5946  gd1983-12-30s2t03.flac
     7:54.74       83787692 B   ---   --   ---xx   flac  0.4982  gd1983-12-30s2t04.flac
     8:27.28       89500700 B   ---   --   ---xx   flac  0.4659  gd1983-12-30s2t05.flac
     8:17.32       87746108 B   ---   --   ---xx   flac  0.6184  gd1983-12-30s2t06.flac
    10:01.54      106143452 B   ---   --   ---xx   flac  0.5950  gd1983-12-30s2t07.flac
     7:59.48       84608540 B   ---   --   ---xx   flac  0.6327  gd1983-12-30s2t08.flac
     4:38.08       49058060 B   ---   --   ---xx   flac  0.6110  gd1983-12-30s2t09.flac
   148:07.31     1567740548 B                            0.6000  (19 files)

No errors occured.
Show Checksums
ffp
gd1983-12-30s1t01.flac:3b0f5d73971453dbf9159f23ac0808d1
gd1983-12-30s1t02.flac:2085e9cfc6516ac996575c3779dea27c
gd1983-12-30s1t03.flac:899f2b0004430b790593660cedc3f7eb
gd1983-12-30s1t04.flac:bcadee85f554922f6074209c3c0b3a57
gd1983-12-30s1t05.flac:2fc6c6f483c064037d7bcb0ffb7f9184
gd1983-12-30s1t06.flac:d8f68995c23d19ae7ed4926cdb0423cb
gd1983-12-30s1t07.flac:41e3aad4ac387909b76236e6d911c1f2
gd1983-12-30s1t08.flac:172de6dd910d9dee5ef590fb5a117caa
gd1983-12-30s1t09.flac:73ec67da42f2131107226751b4a212e4
gd1983-12-30s1t10.flac:632fdc1bbf8d2147efde9657153334c9
gd1983-12-30s2t01.flac:3a60d9d15108d9d5bf77108ea3b532b8
gd1983-12-30s2t02.flac:f9f0a6bc39a6711b95123828e39d0ce4
gd1983-12-30s2t03.flac:110de0c691e48897b22727df394a1fb8
gd1983-12-30s2t04.flac:e9a1125a51969ccb95d9c6032ee691c3
gd1983-12-30s2t05.flac:3570b644ea3bee3f2c787e8a503b1507
gd1983-12-30s2t06.flac:af4c0e965e0f5511a095372260aa3a14
gd1983-12-30s2t07.flac:dce2217bc7a63e19c3206b772ee2aa79
gd1983-12-30s2t08.flac:6c4f1d11005eabcc56a007daddb33d23
gd1983-12-30s2t09.flac:427b42a29f3224da4b89d9bae94f868f
flac-md5
a7acb8f6a1c7fb416d4fb2e8170c2f6c *gd1983-12-30s1t01.flac
233f2c92f3cd2dea4a13a82a90e81f2e *gd1983-12-30s1t02.flac
3f98455b13ad741d22fdba84e608bf59 *gd1983-12-30s1t03.flac
8c3b832988509dc6ad2ad90787eab633 *gd1983-12-30s1t04.flac
ca993dc5dbac14b53aa290aca3f489f1 *gd1983-12-30s1t05.flac
c4243eaa37609d568bf2367b9d408d58 *gd1983-12-30s1t06.flac
bf77e54124c50e1ad3193c3b777ff4e6 *gd1983-12-30s1t07.flac
7bdfecba68c564e33269400209d76da0 *gd1983-12-30s1t08.flac
8eb679e4554c9277348d563b940c7bd4 *gd1983-12-30s1t09.flac
91a301ac9fcd196f32f6005d4fb1b178 *gd1983-12-30s1t10.flac
10ca950eb6c4024fd64b5811dfa60fc6 *gd1983-12-30s2t01.flac
e2a3ae57bb8c8f34b5675ec4e014dbd5 *gd1983-12-30s2t02.flac
2250c7c730303449cd3fbbc5600363d0 *gd1983-12-30s2t03.flac
58b0fbee4d1e6f87d2ca58fb9ecb60a1 *gd1983-12-30s2t04.flac
f5e4b6900aa935f3d56c2c22905999d5 *gd1983-12-30s2t05.flac
3b8cbd7071fbbe7c14fca910c9cae393 *gd1983-12-30s2t06.flac
37eef505ddac8be2307c2cf556437e7e *gd1983-12-30s2t07.flac
702017a709a9ef50045669ab999a3fe6 *gd1983-12-30s2t08.flac
4c091d134fa05afd1c768f568f92a2d4 *gd1983-12-30s2t09.flac

Comments
Add Comment
Other Sources (comments)
SBD>MC>DAT>CDR; via Paul B;... (0) flac16; Source:... (0) flac16; SBD ->... (0) flac16; Nakamichi... (0) flac16; Recording... (0) flac24; AUD:... (0) flac16; Source: 2... (0) flac16; Master... (0) flac24; Master... (0) flac16; source: aud... (0) flac24; source: aud... (0)
Date User Comment