Browse Collections Artists Sources   Search Dates

Add Show    List Management    Help


Grateful Dead 12/05/81
Market Square Arena, Indianapolis, IN
Comments Add Comment    Source Collectors    Add to Collection    Add to Want List    History
Source # 109393 Other Sources
Entered by Gary Field
Checksums flac-md5 , ffp
Disc Counts 2 / 3
Media Size
Date Circulated
Date Added
08/16/2010
08/16/2010
Source Summary flac16; Updated Info: NAK 300>CM>DAT (Up Front Audience)>DAT @ 44.1k -> HT OMega 7.1 Soundcard (Optical Inputs)>WAV (44.1> >CD WAV (Track Split)>FLAC 
  Archive
Source Information - Download Text | Download Zip
Grateful Dead
12/5/81
Market Square Arena
Indianapolis, Indiana

Source:  NAK 300>CM>DAT (Up Front Audience)

Updated Conversion Info: DAT @ 44.1k -> HT OMega 7.1 Soundcard (Optical Inputs)>WAV (44.1> >CD WAV (Track Split)>FLAC

(Had been marked: DAT @ 44.1k -> HT OMega 7.1 Soundcard (Optical Inputs)>WAV (48)> >CD WAV (Track Split)>FLAC)

Notes
- Checked for SBE's
- Unusually warm and spectacular recording for NAK 300 microphones
- Somewhat chatty audience tape - Note the scholar who yells Black Peter as Jerry does the soft intro for Stella Blue (at the end of Playin in the Band reprise)

Glitches
- Slight digital glitch removed in Alabama at ~ 1:20.
- Slight Digital Glitch removed just before last verse of Promised
- Friend of the Devil is cut due to somebody kicking cords
- One quick digital buzz glitch removed in Birdsong (about 1/10 second) at 6:41



Disc 1
01. Alabama Getaway>
02. Promised Land
03. Friend of // the Devil>
04. CC Rider
05. Cumberland Blues>
06. El Paso
07. Ramble On Rose
08. Passenger
09. Birdsong>
10. Let It Grow

Disc 2
Second Set
11. Crowd
12 Shakedown Street>
13. Lost Sailor>
14 Saint of Circumstance>
15 Big Railroad Blues
16 Playin' in the Band>
17 Drums//>

Disc 3
18. //Space>
19 The Wheel>
20 . Playin' in the Band>
21. Stella Blue>
22. Sugar Magnolia
Encore
23. One More Sat. Night

    length     expanded size    cdr  WAVE problems  fmt   ratio  filename
     5:19.35       56353964 B   ---   --   ---xx   flac  0.5215  gd81-12-05 nak cm 300 d01-fixed.flac
     5:30.55       58341404 B   ---   --   ---xx   flac  0.5341  gd81-12-05 nak cm 300 d02-fixed.flac
     7:48.47       82665788 B   ---   --   ---xx   flac  0.5448  gd81-12-05 nak cm 300 d03.flac
     7:09.12       75703868 B   ---   --   ---xx   flac  0.5595  gd81-12-05 nak cm 300 d04.flac
     5:12.14       55069772 B   ---   --   ---xx   flac  0.5705  gd81-12-05 nak cm 300 d05.flac
     4:46.60       50591564 B   ---   --   ---xx   flac  0.5613  gd81-12-05 nak cm 300 d06.flac
     8:16.14       87527372 B   ---   --   ---xx   flac  0.5443  gd81-12-05 nak cm 300 d07.flac
     5:24.52       57275948 B   ---   --   ---xx   flac  0.5773  gd81-12-05 nak cm 300 d08.flac
    10:18.30      109085804 B   ---   --   ---xx   flac  0.5644  gd81-12-05 nak cm 300 d09.flac
    10:27.02      110607548 B   ---   --   ---xx   flac  0.5715  gd81-12-05 nak cm 300 d10.flac
     0:31.24        5524892 B   ---   --   ---xx   flac  0.4872  gd81-12-05 nak cm 300 d11.flac
    12:20.28      130601900 B   ---   --   ---xx   flac  0.5672  gd81-12-05 nak cm 300 d12.flac
     7:06.02       75151148 B   ---   --   ---xx   flac  0.5509  gd81-12-05 nak cm 300 d13.flac
     7:03.34       74697212 B   ---   --   ---xx   flac  0.5596  gd81-12-05 nak cm 300 d14.flac
     4:29.19       47496332 B   ---   --   ---xx   flac  0.6069  gd81-12-05 nak cm 300 d15.flac
    10:08.72      107420588 B   ---   --   ---xx   flac  0.5656  gd81-12-05 nak cm 300 d16.flac
     3:09.14       33372572 B   ---   --   ---xx   flac  0.5415  gd81-12-05 nak cm 300 d17.flac
     5:11.56       54992156 B   ---   --   ---xx   flac  0.5115  gd81-12-05 nak cm 300 d18.flac
     6:49.04       72157052 B   ---   --   ---xx   flac  0.5601  gd81-12-05 nak cm 300 d19.flac
     5:34.38       59007020 B   ---   --   ---xx   flac  0.5673  gd81-12-05 nak cm 300 d20.flac
     8:48.34       93219212 B   ---   --   ---xx   flac  0.5423  gd81-12-05 nak cm 300 d21.flac
     9:41.21      102537836 B   ---   --   ---xx   flac  0.5845  gd81-12-05 nak cm 300 d22.flac
     4:44.29       50165852 B   ---   --   ---xx   flac  0.5962  gd81-12-05 nak cm 300 d23.flac
   155:51.21     1649566804 B                            0.5597  (23 files)
Show Checksums
flac-md5
bf3fa9c8358fc0ed6740d68c11af85a0 *gd1981-12-05.nak.cm.300.109393.sbeok.d01-fixed.flac
6b5ee37ffe5f317a1d0288cf4fe66a97 *gd1981-12-05.nak.cm.300.109393.sbeok.d02-fixed.flac
54bdabb5febfaba903aed156409c15a2 *gd1981-12-05.nak.cm.300.109393.sbeok.d03.flac
e0472bb19208d5ab1066b77b499edc26 *gd1981-12-05.nak.cm.300.109393.sbeok.d04.flac
3257f2d187abc2eb97dd19162ee4dcec *gd1981-12-05.nak.cm.300.109393.sbeok.d05.flac
dff42251f726b0830cb0784ef2fb958f *gd1981-12-05.nak.cm.300.109393.sbeok.d06.flac
acf309ceec7d4730b509b0e72b5ebfdb *gd1981-12-05.nak.cm.300.109393.sbeok.d07.flac
655207f6fa3488ccaaf0ac925fc43cd7 *gd1981-12-05.nak.cm.300.109393.sbeok.d08.flac
18b3ec81d8d3d42dc0090824b9621dfd *gd1981-12-05.nak.cm.300.109393.sbeok.d09.flac
6ce8863974fff0a915dac8d0eae0016f *gd1981-12-05.nak.cm.300.109393.sbeok.d10.flac
7e984ef7e91e95e3e96b41dc7bbf17d6 *gd1981-12-05.nak.cm.300.109393.sbeok.d11.flac
2caacb5685f62f81c91274e3ee6a1af7 *gd1981-12-05.nak.cm.300.109393.sbeok.d12.flac
49694502197e3ce481c662a944cd17fd *gd1981-12-05.nak.cm.300.109393.sbeok.d13.flac
5dee8ec7f70aca238bcb58edb4e6ca97 *gd1981-12-05.nak.cm.300.109393.sbeok.d14.flac
e97a6723a9e4e855b97d47137e89e469 *gd1981-12-05.nak.cm.300.109393.sbeok.d15.flac
b73c8555bf18b3a0bac3056647070863 *gd1981-12-05.nak.cm.300.109393.sbeok.d16.flac
4ae557b0d8a7d01de8c1badfbb55c8a7 *gd1981-12-05.nak.cm.300.109393.sbeok.d17.flac
015aa312f4c1745071a2655d8bdf76a1 *gd1981-12-05.nak.cm.300.109393.sbeok.d18.flac
5ee1e14d2c545392aa664496a8ee6627 *gd1981-12-05.nak.cm.300.109393.sbeok.d19.flac
0fce32d3a274217b561c04847fce0953 *gd1981-12-05.nak.cm.300.109393.sbeok.d20.flac
b954aabd5a0e17b47bee604f4bb46946 *gd1981-12-05.nak.cm.300.109393.sbeok.d21.flac
31cfce4df25f81f3d7c4d0532508a991 *gd1981-12-05.nak.cm.300.109393.sbeok.d22.flac
87ece739df78c338c58fba0807940c57 *gd1981-12-05.nak.cm.300.109393.sbeok.d23.flac
ffp
gd1981-12-05.nak.cm.300.109393.sbeok.d01-fixed.flac:9dd424ffb104ad00e362f2d0ab9f95cc
gd1981-12-05.nak.cm.300.109393.sbeok.d02-fixed.flac:dea5954c2c2dc8127a96413efc92d87c
gd1981-12-05.nak.cm.300.109393.sbeok.d03.flac:d2baccc0c5f5d6a5e5b9eb37d499bdb9
gd1981-12-05.nak.cm.300.109393.sbeok.d04.flac:368267ef3cabc8d9917ddcb28d673541
gd1981-12-05.nak.cm.300.109393.sbeok.d05.flac:9226adb7e86323f9cf672052e14d755c
gd1981-12-05.nak.cm.300.109393.sbeok.d06.flac:7ede8aa921635201c0fe1d1ec1726fc9
gd1981-12-05.nak.cm.300.109393.sbeok.d07.flac:231a324581099af7214f1275eca7984f
gd1981-12-05.nak.cm.300.109393.sbeok.d08.flac:be10a721d25285ca32caec5c651b469f
gd1981-12-05.nak.cm.300.109393.sbeok.d09.flac:47cb54d467518f9509442a03a15740fb
gd1981-12-05.nak.cm.300.109393.sbeok.d10.flac:f734cc0e25dfaefbefd20086c750763d
gd1981-12-05.nak.cm.300.109393.sbeok.d11.flac:b7a59b74dfab8922cfc7db3b8cae5ee2
gd1981-12-05.nak.cm.300.109393.sbeok.d12.flac:6f97aac6fa9630f5ed0312d02448c646
gd1981-12-05.nak.cm.300.109393.sbeok.d13.flac:bdfb002770a1d9340e9a9deeefdf1242
gd1981-12-05.nak.cm.300.109393.sbeok.d14.flac:b0f1a326ad3009f20f9aea4a1df6df41
gd1981-12-05.nak.cm.300.109393.sbeok.d15.flac:20629e03748f7ab868cbf3ebad57b94c
gd1981-12-05.nak.cm.300.109393.sbeok.d16.flac:d72c9dc5dbf7688969e10392857b55c5
gd1981-12-05.nak.cm.300.109393.sbeok.d17.flac:150345388830f4e8de048ae9f90c57fb
gd1981-12-05.nak.cm.300.109393.sbeok.d18.flac:30e88f79d0f1347d8681cd79957b2202
gd1981-12-05.nak.cm.300.109393.sbeok.d19.flac:48f26abdf1ec481fb97a0e041eed84a1
gd1981-12-05.nak.cm.300.109393.sbeok.d20.flac:ad57e3ea97624ed2aa970090655cd696
gd1981-12-05.nak.cm.300.109393.sbeok.d21.flac:8c645789972d85d170b4f2c495dfa98a
gd1981-12-05.nak.cm.300.109393.sbeok.d22.flac:aa3ac9097d9541033c7151fc0b5e2211
gd1981-12-05.nak.cm.300.109393.sbeok.d23.flac:eecc03b139538aca2e3f9c533c206341

Comments
Add Comment
Other Sources (comments)
Master Soundboard Cassette... (1) flac16; Recording by... (0) flac16; Recording... (2) flac16; Recording... (0) flac24; AUD: Beyers... (1) flac16; AUD: Beyers... (1)
Date User Comment