Browse Collections Artists Sources   Search Dates

Add Show    List Management    Help


Grateful Dead 07/08/90
Three Rivers Stadium, Pittsburgh, PA
Comments Add Comment    Source Collectors    Add to Collection    Add to Want List    History
Source # 109665 Other Sources
Entered by Matt Vernon
Checksums ffp , flac-md5
Disc Counts 2 / 3
Media Size
Date Circulated
Date Added
09/04/2010
09/04/2010
Source Summary flac16; Source: Audience recording > Nakamichi 300s (with cp1 caps) > Sony WM-D6 > mac Lineage: mac > Yamaha K-98 > Edirol R09 HR > 24/48 wav > Adobe Audition 1.5 > Wavelab 6 (with iZotope Ozone 4) > iZotope RX Advanced > 16/44.1 wav > CD Wave > TLH > Flac 16 taped from OTS, and transferred by John Bleich 
  Archive
Source Information - Download Text | Download Zip
Grateful Dead
Three Rivers Stadium
Pittsburgh, PA
07/08/1990

Source: Audience recording > Nakamichi 300s (with cp1 caps) > Sony WM-D6 > mac
Lineage: mac > Yamaha K-98 > Edirol R09 HR > 24/48 wav > Adobe Audition 1.5 >
               Wavelab 6 (with iZotope Ozone 4) > iZotope RX Advanced > 16/44.1 wav >
               CD Wave > TLH > Flac 16

taped from OTS, and transferred by John Bleich


Disc 1
set I

01   crowd/tuning
02   Touch Of Grey >
03   Greatest Story Ever Told
04   crowd/tuning
05   Jack-A-Roe
06   crowd/tuning
07   New Minglewood Blues
08   crowd/tuning
09   Row Jimmy
10   Mama Tried >
11   Mexicali Blues
12   crowd/tuning
13   Just Like Tom Thumb's Blues
14   crowd/tuning
15   Let It Grow


Disc 2
set II

01   crowd/tuning
02   Samson And Delilah >
03   Eyes Of The World >
04   Estimated Prophet >
05   Terrapin Station >
06   Jam >
07   Drums >
08   Space >


Disc 3
set II cont'd

01   I Need A Miracle >
02   Wang Dang Doodle >
03   Black Peter >
04   Throwing Stones >
05   Turn On Your Love Light

encore

06   Knockin' On Heaven's Door


Notes:

- patches:

  Jam 2:44 - 3:48
  Space 5:14 - 8:10
  
  patch source - aud > Nakamichi CM-300 mics with CP-4 Shotgun Caps > Sony D-5 > mac (shnid 97714)


Comments:

- Crosby, Stills And Nash opened


Thanks to John for transferring his masters for me to work on


edited and mastered
SIRMick
September 2010


shntool output:

    length     expanded size    cdr  WAVE problems  fmt   ratio  filename
     1:45.69       18684332 B   ---   --   ---xx   flac  0.5360  gd1990-07-08d1t01.flac
     6:24.39       67829372 B   ---   --   ---xx   flac  0.6036  gd1990-07-08d1t02.flac
     4:01.52       42634748 B   ---   --   ---xx   flac  0.6290  gd1990-07-08d1t03.flac
     1:02.57       11070908 B   ---   --   ---xx   flac  0.5591  gd1990-07-08d1t04.flac
     4:34.71       48500636 B   ---   --   ---xx   flac  0.6110  gd1990-07-08d1t05.flac
     1:33.40       16499324 B   ---   --   ---xx   flac  0.5454  gd1990-07-08d1t06.flac
     6:53.58       72989660 B   ---   --   ---xx   flac  0.6177  gd1990-07-08d1t07.flac
     1:19.09       13956812 B   ---   --   ---xx   flac  0.5520  gd1990-07-08d1t08.flac
    12:05.05      127901804 B   ---   --   ---xx   flac  0.5989  gd1990-07-08d1t09.flac
     2:33.39       27080972 B   ---   --   ---xx   flac  0.6299  gd1990-07-08d1t10.flac
     5:01.50       53214044 B   ---   --   ---xx   flac  0.6346  gd1990-07-08d1t11.flac
     2:22.55       25178204 B   ---   --   ---xx   flac  0.5595  gd1990-07-08d1t12.flac
     5:48.45       61493084 B   ---   --   ---xx   flac  0.6298  gd1990-07-08d1t13.flac
     1:05.63       11614220 B   ---   --   ---xx   flac  0.5516  gd1990-07-08d1t14.flac
    12:07.32      128318108 B   ---   --   ---xx   flac  0.6290  gd1990-07-08d1t15.flac
     0:55.42        9800828 B   ---   --   ---xx   flac  0.5553  gd1990-07-08d2t01.flac
     7:01.37       74351468 B   ---   --   ---xx   flac  0.6349  gd1990-07-08d2t02.flac
    15:12.30      160947404 B   ---   --   ---xx   flac  0.6235  gd1990-07-08d2t03.flac
    11:39.61      123447116 B   ---   --   ---xx   flac  0.6259  gd1990-07-08d2t04.flac
    14:52.59      157487612 B   ---   --   ---xx   flac  0.6238  gd1990-07-08d2t05.flac
     4:46.71       50617436 B   ---   --   ---xx   flac  0.5850  gd1990-07-08d2t06.flac
     7:41.02       81325148 B   ---   --   ---xx   flac  0.5800  gd1990-07-08d2t07.flac
     8:45.55       92739404 B   ---   --   ---xx   flac  0.5452  gd1990-07-08d2t08.flac
     5:16.48       55855340 B   ---   --   ---xx   flac  0.6263  gd1990-07-08d3t01.flac
     5:16.32       55817708 B   ---   --   ---xx   flac  0.6240  gd1990-07-08d3t02.flac
     9:43.67      102998828 B   ---   --   ---xx   flac  0.6094  gd1990-07-08d3t03.flac
     9:20.48       98896940 B   ---   --   ---xx   flac  0.6319  gd1990-07-08d3t04.flac
     8:37.65       91351724 B   ---   --   ---xx   flac  0.6407  gd1990-07-08d3t05.flac
     8:56.35       94632764 B   ---   --   ---xx   flac  0.6080  gd1990-07-08d3t06.flac
   186:48.61     1977235948 B                            0.6118  (29 files)
Show Checksums
ffp
gd1990-07-08d1t01.flac:9f94b8720c4fd3a8bfa1694560a0fc3b
gd1990-07-08d1t02.flac:9bbcebc814cddd43295a2ec2ea785cad
gd1990-07-08d1t03.flac:36a126eb06b86617137d15cd41e98965
gd1990-07-08d1t04.flac:03144409d1a3dfa1e928ddd482a1fe0f
gd1990-07-08d1t05.flac:83a3384aa73eed33c1772646a51f3edd
gd1990-07-08d1t06.flac:343b4800b600c2ba7cec0c8caa1c7b80
gd1990-07-08d1t07.flac:1b0c159db2a40b686388abf40077117b
gd1990-07-08d1t08.flac:86046a14dd91bc63ec664412abe0114c
gd1990-07-08d1t09.flac:4007f65374ff48e9470691fd2304ca3b
gd1990-07-08d1t10.flac:ff96ae8217b2cf7b5e0a52dbe5d9f0ae
gd1990-07-08d1t11.flac:5246d7580ed6b01437428efa4134232e
gd1990-07-08d1t12.flac:9ebf8086de05c4cb085040d20f509a56
gd1990-07-08d1t13.flac:e3d002aabd4f910075736b77038c63d9
gd1990-07-08d1t14.flac:a1eb094438b84498960ab5253d44bcc4
gd1990-07-08d1t15.flac:42de8aacbf9a2a6975babd52054a402e
gd1990-07-08d2t01.flac:d5e3a42ce70e64eef98255ea8d442678
gd1990-07-08d2t02.flac:3028a76058c6ab08d6351b0bd71d2dea
gd1990-07-08d2t03.flac:3aafb115fb8c4e359915d580e311c905
gd1990-07-08d2t04.flac:ac525256814c525c8fc439bea54dd3ae
gd1990-07-08d2t05.flac:1190fd7a202adb627011c710bec8be23
gd1990-07-08d2t06.flac:14b66b2a5784c46a0ff6eefaaee6b8be
gd1990-07-08d2t07.flac:d5ba9aafba1d745ca8e5c22727c8a21e
gd1990-07-08d2t08.flac:f51c4aaa8f1c729db56a7b378b75c0ec
gd1990-07-08d3t01.flac:8705d3b24bf1317518e6eba496617260
gd1990-07-08d3t02.flac:0b1109a121a15929b03097d600bc006e
gd1990-07-08d3t03.flac:a68c2116a7823fb1f4b16e961151c64e
gd1990-07-08d3t04.flac:8a938cfae45b7c0346f4b29ebee862ea
gd1990-07-08d3t05.flac:8c32377d5189785b3f9691d8b00be7e7
gd1990-07-08d3t06.flac:a325bff5127740aa13764a947b9f6c2c
flac-md5
46698275b5d3d75abab5187ac56f8011 *gd1990-07-08d1t01.flac
e3d029c337e8d9a33fe239c92db0e5d8 *gd1990-07-08d1t02.flac
a01e7e7008e11abd3dd9c03a4db89e24 *gd1990-07-08d1t03.flac
2dffb83a71a58030c247ab09a36cd09a *gd1990-07-08d1t04.flac
01ed65dd5d148ed1e4c9768353bdd9d2 *gd1990-07-08d1t05.flac
d5b638535092f6fcc68ed1afb75a9ebd *gd1990-07-08d1t06.flac
f643fb6831332350210e0ce948b41f21 *gd1990-07-08d1t07.flac
31fb1c96fe3b7b19d0854def10851363 *gd1990-07-08d1t08.flac
0d51d25fd9ee975f2cd52ed120d4fe43 *gd1990-07-08d1t09.flac
6ab35b016916a745cad6277603c8c8fc *gd1990-07-08d1t10.flac
9664267b71b3aeeadedcbaa04074feae *gd1990-07-08d1t11.flac
f0502b66dd6fbf77bda3f6b2ac42f08c *gd1990-07-08d1t12.flac
a893cfcfb58f0cbc8205e45b8afb867a *gd1990-07-08d1t13.flac
a0491b1604a2fe9ad815b5549832e506 *gd1990-07-08d1t14.flac
5ffda9d54bde36206150b1bb23a8b415 *gd1990-07-08d1t15.flac
fe5593c388198190781ceb9d9bb5dd84 *gd1990-07-08d2t01.flac
312aa70ea27ff9dfa02a2c6fb4b420d6 *gd1990-07-08d2t02.flac
887bfd0dc369bcad06d0427a02623eaa *gd1990-07-08d2t03.flac
c26890b4e92c1ba31b498ffaaedb6582 *gd1990-07-08d2t04.flac
858d771608316615a3cfaa0417318f4a *gd1990-07-08d2t05.flac
e5f79459907a4cc29e36cd741207dce3 *gd1990-07-08d2t06.flac
e1590a03ffd24db8480eb62c3c869f32 *gd1990-07-08d2t07.flac
d78af5f9227843b6d06006628eae4c8d *gd1990-07-08d2t08.flac
0783dce5fa9fb54e4ef3ebe83ac1d7a0 *gd1990-07-08d3t01.flac
1af11311e04a0e1301776ada403f88af *gd1990-07-08d3t02.flac
94f0adc38fe09f6d2afd8cce2081ddcd *gd1990-07-08d3t03.flac
d8373da4a8f11adaa104f89ce2311a8b *gd1990-07-08d3t04.flac
c8501e58f8b064866449a57e80454e40 *gd1990-07-08d3t05.flac
2bab64a3a86d971ecbf567720b19f0fd *gd1990-07-08d3t06.flac

Comments
Add Comment
Other Sources (comments)
SBD> C(?)> CDR; via Joey B;... (7) flac16; Source: aud... (1) flac24; Master... (0) flac16; Master... (0) flac16; SBD: ? >... (0) flac24; SBD: ? >... (0) flac16/48kHz; Set 1:... (0) flac16;... (0) flac16; Matrix 2... (0) DTS-Audio-CD 5.1... (0) flac16/48kHz; 5.1... (0) flac24; Recording... (0) flac16; Recording... (0) flac16/48kHz; Rick... (0)
Date User Comment