Browse Collections Artists Sources   Search Dates

Add Show    List Management    Help


Grateful Dead 10/27/79
Cape Cod Coliseum, South Yarmouth, MA
Comments Add Comment    Source Collectors    Add to Collection    Add to Want List    History
Source # 109777 Other Sources
Entered by Matt Vernon
Checksums ffp , flac-md5
Disc Counts 2 / 3
Media Size
Date Circulated
Date Added
09/09/2010
09/09/2010
Source Summary flac16; AUD: 3x Nakamichi CM-300's > Nakamichi 550 (lead deck) > Sony TC-153SD (Tim's deck) > Maxell UD-XLII 90's. Set up behind the soundboard. Taped by Tim Friend. Transfer: MAC > Nakamichi CR5A > Edirol FA-66 > Wavelab > R8Brain > CD-Wave > TLH > FLAC 1644 Tagged. Transfer by Andrew F. 09/2010 
  Archive
Source Information - Download Text | Download Zip
GRATEFUL DEAD
Cape Cod Coliseum
South Yarmouth MA
10-27-1979

s1t01 Jack Straw
s1t02 Candyman
s1t03 Me & My Uncle >
s1t04 Big River
s1t05 Brown Eyed Women
s1t06 Easy to Love You
s1t07 Minglewood Blues
s1t08 Stagger Lee
s1t09 Lost Sailor >
s1t10 Saint of Circumstance >
s1t11 Deal

s2t01 crowd & tuning
s2t02 Dancin' in the Streets >
s2t03 Franklin's Tower
s2t04 crowd & tuning
s2t05 He's Gone > Jam >
s2t06 The Other One >
s2t07 Drums (Phil plays on first two minutes) >
s2t08 Not Fade Away >
s2t09 Black Peter >
s2t10 Around & Around
s2t11 crowd & tuning
s2t12 Encore: One More Saturday Night

AUD: 3x Nakamichi CM-300's > Nakamichi 550 (lead deck) >
Sony TC-153SD (Tim's deck) > Maxell UD-XLII 90's. Set up
behind the soundboard. Taped by Tim Friend.

Transfer: MAC > Nakamichi CR5A > Edirol FA-66 > Wavelab >
R8Brain > CD-Wave > TLH > FLAC 1644 Tagged. Transfer by
Andrew F. 09/2010

Notes: There was a mic-cable or connection problem that
caused static in the right channel at various times during
the show. Wavelab plug-ins were applied to soften it, and
in some severe spots the left channel was pasted over right
to make a mono signal. Patches were added to cover approx
one minute at end of Drums and fifteen seconds at start of
Black Peter, making 2nd set seamless. Suggested CDR burn:
D1 s1t01 > s1t11, D2 s2t01 > s2t03, D3 s2t04 > s2t12.

    length     expanded size    cdr  WAVE problems  fmt   ratio  filename
     7:32.07       79749308 B   ---   --   ---xx   flac  0.5647  gd1979-10-27s1t01.flac
     7:18.70       77427884 B   ---   --   ---xx   flac  0.5269  gd1979-10-27s1t02.flac
     3:05.00       32634044 B   ---   --   ---xx   flac  0.5743  gd1979-10-27s1t03.flac
     7:41.38       81409820 B   ---   --   ---xx   flac  0.5718  gd1979-10-27s1t04.flac
     5:42.20       60375884 B   ---   --   ---xx   flac  0.5687  gd1979-10-27s1t05.flac
     4:28.02       47279948 B   ---   --   ---xx   flac  0.5637  gd1979-10-27s1t06.flac
     7:40.58       81280460 B   ---   --   ---xx   flac  0.5763  gd1979-10-27s1t07.flac
     9:29.36      100456316 B   ---   --   ---xx   flac  0.5511  gd1979-10-27s1t08.flac
     6:32.28       69214700 B   ---   --   ---xx   flac  0.5429  gd1979-10-27s1t09.flac
     5:28.59       57998012 B   ---   --   ---xx   flac  0.5944  gd1979-10-27s1t10.flac
     5:33.11       58767116 B   ---   --   ---xx   flac  0.5873  gd1979-10-27s1t11.flac
     2:32.24       26869292 B   ---   --   ---xx   flac  0.5207  gd1979-10-27s2t01.flac
    13:44.01      145355996 B   ---   --   ---xx   flac  0.6097  gd1979-10-27s2t02.flac
    17:02.52      180403148 B   ---   --   ---xx   flac  0.5902  gd1979-10-27s2t03.flac
     2:04.14       21906572 B   ---   --   ---xx   flac  0.4885  gd1979-10-27s2t04.flac
    15:36.67      165268028 B   ---   --   ---xx   flac  0.5605  gd1979-10-27s2t05.flac
    10:18.61      109158716 B   ---   --   ---xx   flac  0.5800  gd1979-10-27s2t06.flac
     6:24.33       67815260 B   ---   --   ---xx   flac  0.5702  gd1979-10-27s2t07.flac
     9:14.40       97819724 B   ---   --   ---xx   flac  0.5719  gd1979-10-27s2t08.flac
     9:29.69      100533932 B   ---   --   ---xx   flac  0.5446  gd1979-10-27s2t09.flac
     7:52.71       83427836 B   ---   --   ---xx   flac  0.5879  gd1979-10-27s2t10.flac
     1:33.18       16447580 B   ---   --   ---xx   flac  0.5152  gd1979-10-27s2t11.flac
     5:02.68       53432780 B   ---   --   ---xx   flac  0.5945  gd1979-10-27s2t12.flac
   171:29.22     1815032356 B                            0.5704  (23 files)

No errors occured.
Show Checksums
ffp
gd1979-10-27s1t01.flac:c54af13870ccd6fe35ca6a0bfb3d2e5c
gd1979-10-27s1t02.flac:43b9ce4af66acdaf38843ccd20125984
gd1979-10-27s1t03.flac:7dff23f891174a1e08caee584eb1cd0c
gd1979-10-27s1t04.flac:1c254e4398be9311f6b7bf22f3fff766
gd1979-10-27s1t05.flac:990e3a5c61b00e104f607b09c563ed64
gd1979-10-27s1t06.flac:015aa7338fdd527fb1b1ab13445b7382
gd1979-10-27s1t07.flac:d2522f99cecf21262560618d3adb9466
gd1979-10-27s1t08.flac:4d0645be7cb28b430f6bc910b092c629
gd1979-10-27s1t09.flac:e6b49d2f6a0b4f24e388a578d70aec7c
gd1979-10-27s1t10.flac:83d3b292bd6813fb4390fd0f383cead9
gd1979-10-27s1t11.flac:56e0ffc45b7238275dd505ef51abfe9c
gd1979-10-27s2t01.flac:12632d163c82cfb569b1f36e84aacf82
gd1979-10-27s2t02.flac:498517a710a3a61f86f7bb468d6e99ab
gd1979-10-27s2t03.flac:9734de8c0c282ce3c6e1784e4bc03ade
gd1979-10-27s2t04.flac:a5e9a56ea414bd41c4f191f0659331a7
gd1979-10-27s2t05.flac:8922353a779225491a4f3fe22be35733
gd1979-10-27s2t06.flac:7d5fd427c3d34cd0c0f5e4b9d8ffd16e
gd1979-10-27s2t07.flac:ddd2528eeff6a40a81c283b8a531b86e
gd1979-10-27s2t08.flac:7919dc610986be4471eead5d9fde0636
gd1979-10-27s2t09.flac:cf5a04058cb63e33e689994e92e05fa0
gd1979-10-27s2t10.flac:90b5dacfbc110167634d1af941e8d777
gd1979-10-27s2t11.flac:d059e8a7c3ddc83096c3090e893e997f
gd1979-10-27s2t12.flac:37a373d482811e73ecd4293f4dbe1b94
flac-md5
68bc81d9c0b9a07b0441c564edf791e9 *gd1979-10-27s1t01.flac
b3344c5e75baf3be576e3e6d5bebe818 *gd1979-10-27s1t02.flac
c2cf0cd117a0186dad3646cd2ca3448f *gd1979-10-27s1t03.flac
ddb74f515f39f95f4fb7bf99cb64906c *gd1979-10-27s1t04.flac
c3a2bef5a43cfe50f36212f9669df5c5 *gd1979-10-27s1t05.flac
b639e316de0f40f93bbea9bc5fffd6f0 *gd1979-10-27s1t06.flac
74342fa4f138f642648235a56bb705fb *gd1979-10-27s1t07.flac
0c8e2e1058e690b6363d53f570c39b29 *gd1979-10-27s1t08.flac
db99993cae3bd6c31a52b80a960f1028 *gd1979-10-27s1t09.flac
19903e0cc4043665e99e699c9779a82f *gd1979-10-27s1t10.flac
0d6dee77e1b3472196b00f5c44f90d53 *gd1979-10-27s1t11.flac
83771b6ab68ba9294f904001bde946ca *gd1979-10-27s2t01.flac
a61a34bc93de8ae69847f154b6f0b81d *gd1979-10-27s2t02.flac
0f77a4c44e50b28389f83c2b49327a8a *gd1979-10-27s2t03.flac
997b701d77119ee0a282dfd9da4c03f1 *gd1979-10-27s2t04.flac
aea61a8f97832400cdbbabd31acfb7d7 *gd1979-10-27s2t05.flac
d6fe7535c15f50cf08d6a37984d9e965 *gd1979-10-27s2t06.flac
46f31c0ef759764253619f5246a9320b *gd1979-10-27s2t07.flac
49049ffb03419c05faeb96814157ddd1 *gd1979-10-27s2t08.flac
c5ecc270758c36c57c6ef71296b9fbae *gd1979-10-27s2t09.flac
6f9e0b0df5e3a147690cdbfa466e480b *gd1979-10-27s2t10.flac
bd2a1d8e78c0945a4c1a537edec14d55 *gd1979-10-27s2t11.flac
930b25ac80eb185219ca1cd1c936d790 *gd1979-10-27s2t12.flac

Comments
Add Comment
Other Sources (comments)
SBD> [?]> DAT (D. DiProsa)>... (10) Master Soundboard Cassette... (9) Recording by Steve Rolfe:... (0) Set 2 Only: zero gen source... (0) Repatch of (1) flac16; Recording... (0) flac16; Recording... (0) flac16; SBD and... (0) flac16; Recording... (0) flac16; Recording... (0) flac16; Matrix by... (0) flac16; Sennheiser... (0) flac24; Recorded... (0)
Date User Comment