Browse Collections Artists Sources   Search Dates

Add Show    List Management    Help


Grateful Dead 03/12/81
Boston Garden, Boston, MA
Comments Add Comment    Source Collectors    Add to Collection    Add to Want List    History
Source # 109872 Other Sources
Entered by Gary Field
Checksums ffp , flac-md5
Disc Counts 2 / 3
Media Size
Date Circulated
Date Added
09/18/2010
09/18/2010
Source Summary flac16; AUD: 3x Nakamichi CM300/CP4's shotguns > Nakamichi 550 > Maxell XLII-S 90's, set up center balcony facing stage, section 102. Taped by Tim Friend & Joe Morrone. Transfer: MAC > Nakamichi CR5A > Edirol FA-66 > Wavelab > R8Brain > CD-Wave > TLH > FLAC 1644 Tagged. Transfer by Andrew F. 09/2010 
  Archive
Source Information - Download Text | Download Zip
GRATEFUL DEAD
Boston Garden
Boston MA
03-12-1981

s1t01 crowd & tuning
s1t02 Jack Straw
s1t03 Tennessee Jed
s1t04 Mama Tried >
s1t05 Mexicali Blues
s1t06 Birdsong
s1t07 C.C. Rider
s1t08 Althea
s1t09 Let it Grow >
s1t10 Franklin's Tower

s2t01 crowd & tuning
s2t02 Terrapin >
s2t03 Playin' in the Band >
s2t04 He's Gone >
s2t05 Drums >
s2t06 Space >
s2t07 Not Fade Away >
s2t08 Black Peter >
s2t09 Around & Around >
s2t10 Johnny B. Goode
s2t11 Encore: U.S. Blues

AUD: 3x Nakamichi CM300/CP4's shotguns > Nakamichi 550 >
Maxell XLII-S 90's, set up center balcony facing stage,
section 102. Taped by Tim Friend & Joe Morrone.

Transfer: MAC > Nakamichi CR5A > Edirol FA-66 > Wavelab >
R8Brain > CD-Wave > TLH > FLAC 1644 Tagged. Transfer by
Andrew F. 09/2010

Patches added as follows...
ID-3307: He's Gone 9:34 > 10:24 & Drums 1:54 > Space 0:37.
ID-102025: Drums 4:48 > 5:00.

CDRs: D1 s1t01 > s1t10, D2 s2t01 > s2t05, D3 s2t06 > s2t11.

    length     expanded size    cdr  WAVE problems  fmt   ratio  filename
     3:35.22       37977788 B   ---   --   ---xx   flac  0.5253  gd1981-03-12s1t01.flac
     6:20.44       67135532 B   ---   --   ---xx   flac  0.5830  gd1981-03-12s1t02.flac
     9:55.07      104974508 B   ---   --   ---xx   flac  0.5708  gd1981-03-12s1t03.flac
     2:35.61       27485516 B   ---   --   ---xx   flac  0.5943  gd1981-03-12s1t04.flac
     5:20.41       56544476 B   ---   --   ---xx   flac  0.5787  gd1981-03-12s1t05.flac
    10:00.01      105842396 B   ---   --   ---xx   flac  0.5703  gd1981-03-12s1t06.flac
     8:30.53       90088700 B   ---   --   ---xx   flac  0.5756  gd1981-03-12s1t07.flac
     8:41.30       91975004 B   ---   --   ---xx   flac  0.5584  gd1981-03-12s1t08.flac
    11:04.52      117251948 B   ---   --   ---xx   flac  0.5731  gd1981-03-12s1t09.flac
     9:07.11       96516716 B   ---   --   ---xx   flac  0.5860  gd1981-03-12s1t10.flac
     1:23.38       14730620 B   ---   --   ---xx   flac  0.5324  gd1981-03-12s2t01.flac
    12:22.30      130959404 B   ---   --   ---xx   flac  0.5782  gd1981-03-12s2t02.flac
    16:07.02      170583548 B   ---   --   ---xx   flac  0.5709  gd1981-03-12s2t03.flac
    13:41.20      144871484 B   ---   --   ---xx   flac  0.5630  gd1981-03-12s2t04.flac
     8:12.08       86807660 B   ---   --   ---xx   flac  0.5378  gd1981-03-12s2t05.flac
     3:09.18       33381980 B   ---   --   ---xx   flac  0.5234  gd1981-03-12s2t06.flac
    10:09.46      107535836 B   ---   --   ---xx   flac  0.5692  gd1981-03-12s2t07.flac
     9:02.08       95627660 B   ---   --   ---xx   flac  0.5463  gd1981-03-12s2t08.flac
     4:01.26       42573596 B   ---   --   ---xx   flac  0.5840  gd1981-03-12s2t09.flac
     4:31.61       47947916 B   ---   --   ---xx   flac  0.5926  gd1981-03-12s2t10.flac
     5:49.04       61573052 B   ---   --   ---xx   flac  0.5891  gd1981-03-12s2t11.flac
   163:40.58     1732385340 B                            0.5686  (21 files)

No errors occured.

Show Checksums
ffp
gd1981-03-12s1t01.flac:7e47545af7cb6bf1eabf9c7b57a5e95e
gd1981-03-12s1t02.flac:f9ae7d8f84e055b1e664a4ecab6433c3
gd1981-03-12s1t03.flac:6391214bfa39dba9f5b1fa9b672056d2
gd1981-03-12s1t04.flac:6a27f500b391fc6afa5d0a6b66f20808
gd1981-03-12s1t05.flac:b82a1f36eb71c647fc3ea829a73b8ecb
gd1981-03-12s1t06.flac:129fc0df31b7ada548f949ca556d17a0
gd1981-03-12s1t07.flac:1d7697b9281bae8e44bd2b55fd9af7e3
gd1981-03-12s1t08.flac:9d8e69f4512609aa1a0144c5bcbed7b3
gd1981-03-12s1t09.flac:0075331d6320d85422adebde2118c933
gd1981-03-12s1t10.flac:bb9e7796f308979ffb09117fdc4ae103
gd1981-03-12s2t01.flac:1b8c71b0c994b36db3ea714ec61fc9eb
gd1981-03-12s2t02.flac:f4f5252fb2cd8c8a27f86044f4aa4553
gd1981-03-12s2t03.flac:793607cd66901a716021517f0b9bc2af
gd1981-03-12s2t04.flac:3eb3b863159f8612155485b567c7c007
gd1981-03-12s2t05.flac:31c95a6d68427ac181c607349a723367
gd1981-03-12s2t06.flac:6d6c479f3008c6c17f6fe4c54fbafc27
gd1981-03-12s2t07.flac:62ffc524c0cf0fa7962ce4ad354c0ed6
gd1981-03-12s2t08.flac:e74ecefca7d592996462fa32eef165b6
gd1981-03-12s2t09.flac:0023fefd8a2681446b2b7a6cde950a5b
gd1981-03-12s2t10.flac:ca6d92b41f0fd19fad5936c4a68aa412
gd1981-03-12s2t11.flac:feeef0ac2879e1ac5eafa55ba1995cbd
flac-md5
32f95bad999c91f5320c2b37c3f284a7 *gd1981-03-12s1t01.flac
29ee52eea26b8c614522b937dd2dbc3c *gd1981-03-12s1t02.flac
4568b5eacad5422e18d226525d8331e2 *gd1981-03-12s1t03.flac
f7f2f5d1188aa7339b7d74746d746e77 *gd1981-03-12s1t04.flac
7f0bcad47500c6c7f283328e3e8e8d18 *gd1981-03-12s1t05.flac
f27cd131196a1b895c49eb97649e7df6 *gd1981-03-12s1t06.flac
319766f702f61e449d5833de3396d2bf *gd1981-03-12s1t07.flac
f7a8fde18138e2aa324d889b342db937 *gd1981-03-12s1t08.flac
ec5afef237328d7557ac773bf7ea4f70 *gd1981-03-12s1t09.flac
04af6e48b4a5693ef300f931f0b6bf43 *gd1981-03-12s1t10.flac
05b36af3263444826f65c4468dd0ddc1 *gd1981-03-12s2t01.flac
becea30dd7c86b557c8adc9b7bbde316 *gd1981-03-12s2t02.flac
3285f97ed4a5e20af62d46c5d3e99abf *gd1981-03-12s2t03.flac
ef62b27988ba5522ca9a582aea7043a3 *gd1981-03-12s2t04.flac
45e4ec5845cd1253377b63598417af0d *gd1981-03-12s2t05.flac
0666af30937adf796abc75a523820b39 *gd1981-03-12s2t06.flac
466840b1ef554040351a3863773b4380 *gd1981-03-12s2t07.flac
029dbe0deb41f12950a8a43908136108 *gd1981-03-12s2t08.flac
1c11d3865ffd7a5408f569db76944da0 *gd1981-03-12s2t09.flac
fc9fed260c3f2c5cbd4ddbc295a35ae6 *gd1981-03-12s2t10.flac
e147686ac5de3fbcf53f2eb599760f36 *gd1981-03-12s2t11.flac

Comments
Add Comment
Other Sources (comments)
taped in "upper left", Sony... (0) Recording by Steve Rolfe:... (1) flac16; Recording... (0) flac24; Recording... (0) flac16; Nakamichi... (0) flac24; Source:... (0)
Date User Comment
02/08/2013 nfagdtrfb text file correction: taped by Tim Friend & Joe Morrone, thanks guys!