Browse Collections Artists Sources   Search Dates

Add Show    List Management    Help


Grateful Dead 03/14/81
Hartford Civic Center, Hartford, CT
Comments Add Comment    Source Collectors    Add to Collection    Add to Want List    History
Source # 109989 Other Sources
Entered by Gary Field
Checksums ffp , flac-md5
Disc Counts 2 / 3
Media Size
Date Circulated
Date Added
09/26/2010
09/26/2010
Source Summary flac16; AUD: 3x Nakamichi CM300/CP4's shotguns > Nakamichi 550 > Maxell XLII-S 90's, set up in arena riser "all the way back" center, facing the stage. Taped by Tim Friend & Joe Morrone. Transfer: MAC > Nakamichi CR5A > Edirol FA-66 > Wavelab > R8Brain > CD-Wave > TLH > FLAC 1644 Tagged. Transfer by Andrew F. 09/2010 
  Archive
Source Information - Download Text | Download Zip
GRATEFUL DEAD
Civic Center
Hartford CT
03-14-1981

s1t01 crowd & tuning
s1t02 Feel Like a Stranger
s1t03 Sugaree
s1t04 Me & My Uncle >
s1t05 Big River
s1t06 Peggy-O
s1t07 C.C. Rider
s1t08 Althea
s1t09 Passenger
s1t10 China Cat Sunflower >
s1t11 I Know You Rider

s2t01 crowd & tuning
s2t02 Alabama Getaway >
s2t03 Greatest Story Ever Told
s2t04 Ship of Fools
s2t05 Lost Sailor >
s2t06 Saint of Circumstance >
s2t07 Drums >
s2t08 The Other One >
s2t09 Stella Blue >
s2t10 I Need a Miracle >
s2t11 Bertha >
s2t12 Good Lovin'
s2t13 Encore: One More Saturday Night

AUD: 3x Nakamichi CM300/CP4's shotguns > Nakamichi 550 >
Maxell XLII-S 90's, set up in arena riser "all the way
back" center, facing the stage. Taped by Tim Friend & Joe Morrone.

Transfer: MAC > Nakamichi CR5A > Edirol FA-66 > Wavelab >
R8Brain > CD-Wave > TLH > FLAC 1644 Tagged. Transfer by
Andrew F. 09/2010

Note: Patch from ID-81340 in Drums 8:37 > 9:19.

CDRs: D1 s1t01 > s1t11, D2 s2t01 > s2t07, D3 s2t08 > s2t13.

    length     expanded size    cdr  WAVE problems  fmt   ratio  filename
     1:48.23       19105340 B   ---   --   ---xx   flac  0.5128  gd1981-03-14s1t01.flac
     9:33.01      101079596 B   ---   --   ---xx   flac  0.5657  gd1981-03-14s1t02.flac
    12:37.13      133565420 B   ---   --   ---xx   flac  0.5622  gd1981-03-14s1t03.flac
     2:56.47       31156988 B   ---   --   ---xx   flac  0.5512  gd1981-03-14s1t04.flac
     6:15.51       66269996 B   ---   --   ---xx   flac  0.5569  gd1981-03-14s1t05.flac
     7:32.70       79897484 B   ---   --   ---xx   flac  0.5505  gd1981-03-14s1t06.flac
     9:23.71       99480236 B   ---   --   ---xx   flac  0.5590  gd1981-03-14s1t07.flac
     9:59.67      105821228 B   ---   --   ---xx   flac  0.5521  gd1981-03-14s1t08.flac
     6:17.51       66622796 B   ---   --   ---xx   flac  0.5660  gd1981-03-14s1t09.flac
     5:49.56       61695356 B   ---   --   ---xx   flac  0.5848  gd1981-03-14s1t10.flac
     6:40.05       70571804 B   ---   --   ---xx   flac  0.5909  gd1981-03-14s1t11.flac
     2:07.54       22529852 B   ---   --   ---xx   flac  0.4859  gd1981-03-14s2t01.flac
     5:09.69       54669932 B   ---   --   ---xx   flac  0.5723  gd1981-03-14s2t02.flac
     4:57.63       52539020 B   ---   --   ---xx   flac  0.5659  gd1981-03-14s2t03.flac
     9:16.45       98184284 B   ---   --   ---xx   flac  0.5304  gd1981-03-14s2t04.flac
     6:30.60       68937164 B   ---   --   ---xx   flac  0.5326  gd1981-03-14s2t05.flac
     7:06.40       75240524 B   ---   --   ---xx   flac  0.5650  gd1981-03-14s2t06.flac
    13:03.51      138241196 B   ---   --   ---xx   flac  0.5123  gd1981-03-14s2t07.flac
     7:25.29       78566252 B   ---   --   ---xx   flac  0.5461  gd1981-03-14s2t08.flac
    10:50.04      114669452 B   ---   --   ---xx   flac  0.5219  gd1981-03-14s2t09.flac
     3:23.39       35900972 B   ---   --   ---xx   flac  0.5837  gd1981-03-14s2t10.flac
     6:11.41       65540876 B   ---   --   ---xx   flac  0.5852  gd1981-03-14s2t11.flac
     7:42.28       81562700 B   ---   --   ---xx   flac  0.5845  gd1981-03-14s2t12.flac
     5:27.71       57849836 B   ---   --   ---xx   flac  0.5769  gd1981-03-14s2t13.flac
   168:08.74     1779698304 B                            0.5545  (24 files)

No errors occured.

Show Checksums
ffp
gd1981-03-14s1t01.flac:0fa0cf0dfd0c945424f1df3ee7f171f9
gd1981-03-14s1t02.flac:b5530d96c96e95bcd5a5ccde181bb6ef
gd1981-03-14s1t03.flac:7fd1e9241939bb9a9469ac776bf95366
gd1981-03-14s1t04.flac:adecaa8c51d456ae4617621de25555c8
gd1981-03-14s1t05.flac:2212830348ed2552852285508acad368
gd1981-03-14s1t06.flac:863105ce8f3db4bdf4d770677592b4b6
gd1981-03-14s1t07.flac:3e4ca4d78f7838cb815e3d8f39c3461b
gd1981-03-14s1t08.flac:af243773615b2c2e44bd7082990a0b12
gd1981-03-14s1t09.flac:c8a27d7de3710b8b420416ae6743e4e5
gd1981-03-14s1t10.flac:0cb9def7265ee18843df2d51a2618436
gd1981-03-14s1t11.flac:4e136b4a621d0cadbe06bdf51d41dec1
gd1981-03-14s2t01.flac:fcd844af7ad63d4ef3c288c3f7c6cec9
gd1981-03-14s2t02.flac:48785ca9b9314fecba0070513ebb5b59
gd1981-03-14s2t03.flac:1f75d056db1194226946cedb001085bd
gd1981-03-14s2t04.flac:5a3b05af27f930e02805f835bb16eba7
gd1981-03-14s2t05.flac:ce53b45e26ee57d855c1f458ab661fdb
gd1981-03-14s2t06.flac:232fae8781eb484c936af1827aedc374
gd1981-03-14s2t07.flac:9273bdad5954a14b3cf4d33b5c70a527
gd1981-03-14s2t08.flac:a5682ed3badccf96ba9144e449270bae
gd1981-03-14s2t09.flac:e40dbb4c8d25d6371656624be6dd4e80
gd1981-03-14s2t10.flac:d626baad7886e7a068bd0ed6b46fc57a
gd1981-03-14s2t11.flac:4abc4974b8feac8ef488555a0bdb2909
gd1981-03-14s2t12.flac:0f1c74204d35e9a9f68c0941d803dd99
gd1981-03-14s2t13.flac:7f8952b16e8464af6a59ff95656351e0
flac-md5
b6715817b5901b686570b94201f7b3ec *gd1981-03-14s1t01.flac
91c50fc52e8b3fa61e4045b245ff0715 *gd1981-03-14s1t02.flac
26f116b4d3b0a55e484e3927b93fc531 *gd1981-03-14s1t03.flac
321b6b7a56813088966f0b5c14a2a7ed *gd1981-03-14s1t04.flac
603a399dbc443ea2d17f4ce9943b8f7e *gd1981-03-14s1t05.flac
aa0a326056e844940f5c397956e88749 *gd1981-03-14s1t06.flac
1104ed45be50518b3ec4836d4f43cac0 *gd1981-03-14s1t07.flac
74b2ea9166afb9057b7b8b9dc274877e *gd1981-03-14s1t08.flac
3b6528578e7213d21cbd63a1ea98c860 *gd1981-03-14s1t09.flac
82ce3de9368a58fb1515226cf0ac006a *gd1981-03-14s1t10.flac
3a1f92af33c54a8b781f5990b2de790a *gd1981-03-14s1t11.flac
83530f67e67d07ba84b277aef636e253 *gd1981-03-14s2t01.flac
757a4443464fd043ab6256f48a481cd9 *gd1981-03-14s2t02.flac
8faac63287361cae04c846ecfd5d68af *gd1981-03-14s2t03.flac
e041894e317a03d0fc8cc9c0f88ebe48 *gd1981-03-14s2t04.flac
66a40c785cdaeaf55a7ce2e4c0a71ae5 *gd1981-03-14s2t05.flac
54759ff7aaca55fe8215670a73609fb4 *gd1981-03-14s2t06.flac
ab7fe6f49333c6dd970aa0883f55f506 *gd1981-03-14s2t07.flac
21bd40bde4e0088f6f1eb3ea1fd0e736 *gd1981-03-14s2t08.flac
194a1c09a9205ee210bb239d23f3caa8 *gd1981-03-14s2t09.flac
950bfc18e393cb24e527c04fc1a75559 *gd1981-03-14s2t10.flac
6ccda393a3c4bc3eea5651f9f871a58b *gd1981-03-14s2t11.flac
8740755e291cdc815f963c371c22984f *gd1981-03-14s2t12.flac
f7eb010897e21ed77e02d3364c8f621d *gd1981-03-14s2t13.flac

Comments
Add Comment
Other Sources (comments)
Aud (?)-> CD-> EAC-> SHN;... (3) flac16; Recorded by... (0) flac16; Recording by... (0) flac16; Recording... (0) flac24; Recording... (0) flac16; Recording... (0) flac24; Cassette... (0) flac16; Source Info:... (0) flac24; Source Info:... (0)
Date User Comment
02/08/2013 nfagdtrfb text file correction: taped by Tim Friend & Joe Morrone, thanks guys!