Browse Collections Artists Sources   Search Dates

Add Show    List Management    Help


Grateful Dead 09/27/81
Capital Centre, Landover, MD
Comments Add Comment    Source Collectors    Add to Collection    Add to Want List    History
Source # 110054 Other Sources
Entered by Matt Vernon
Checksums ffp , flac-md5
Disc Counts 1 / 1
Media Size
Date Circulated
Date Added
10/03/2010
10/03/2010
Source Summary flac16; Set 2 Source: Unknown AUD (cassette circa 1982) Transfer: Maxell UD90 > Nakamichi CR5A > Edirol FA-66 > Wavelab > R8Brain > CD-Wave > TLH > FLAC Tagged. 
  Archive
Source Information - Download Text | Download Zip
GRATEFUL DEAD
Capital Centre
Landover MD
09-27-1981
Second Set

s2t01 China Cat Sunflower >
s2t02 I Know You Rider
s2t03 Women Are Smarter
s2t04 He's Gone >
s2t05 Truckin' > Jam > (Drums missing)
s2t06 Space > Spanish Jam >
s2t07 Wharf Rat >
s2t08 I Need a Miracle >
s2t09 Good Lovin'
s2t10 Encore: It's All Over Now Baby Blue

Source: Unknown AUD (cassette circa 1982)

Transfer: Maxell UD90 > Nakamichi CR5A > Edirol FA-66 >
Wavelab > R8Brain > CD-Wave > TLH > FLAC Tagged.

Note: Decent recording, but comes from a degraded and
damaged old cassette. First Aud in database as of Oct
2010. Hoping someone will upgrade this with something
in better condition or more complete...



gd1981-09-27s2t01.flac:f1bc119f2d9a4f682f4aa76d934cfd4e
gd1981-09-27s2t02.flac:7f2c192e8e3e56458daceef25a5b316c
gd1981-09-27s2t03.flac:8361c231514f41f1888b85945158a8e4
gd1981-09-27s2t04.flac:d979ac0036f372bc5acea7e1b2f7b45c
gd1981-09-27s2t05.flac:587b24a1d787d41439462ce4022c68b8
gd1981-09-27s2t06.flac:4ba79b0e951a6d936d351f190fecacaa
gd1981-09-27s2t07.flac:85ea0b2dbc2b5f81c50bacbedfb47d5d
gd1981-09-27s2t08.flac:4af4319032d7b90b4a06ef66cef5c9a1
gd1981-09-27s2t09.flac:64447fb88114fd11b288799b30346561
gd1981-09-27s2t10.flac:2c2bebf71c6309140363b8f1dfcb2cac

    length     expanded size    cdr  WAVE problems  fmt   ratio  filename
     6:06.60       64703564 B   ---   --   ---xx   flac  0.5090  gd1981-09-27s2t01.flac
     5:06.05       53990204 B   ---   --   ---xx   flac  0.5083  gd1981-09-27s2t02.flac
     4:49.58       51116060 B   ---   --   ---xx   flac  0.5190  gd1981-09-27s2t03.flac
    11:32.50      122186444 B   ---   --   ---xx   flac  0.4950  gd1981-09-27s2t04.flac
     9:27.22      100070588 B   ---   --   ---xx   flac  0.5110  gd1981-09-27s2t05.flac
     8:35.39       90937772 B   ---   --   ---xx   flac  0.4786  gd1981-09-27s2t06.flac
     9:19.69       98769932 B   ---   --   ---xx   flac  0.4882  gd1981-09-27s2t07.flac
     4:40.16       49429676 B   ---   --   ---xx   flac  0.5214  gd1981-09-27s2t08.flac
     7:54.73       83785340 B   ---   --   ---xx   flac  0.5171  gd1981-09-27s2t09.flac
     7:14.74       76731692 B   ---   --   ---xx   flac  0.5063  gd1981-09-27s2t10.flac
    74:48.16      791721272 B                            0.5030  (10 files)

No errors occured.
Show Checksums
ffp
gd1981-09-27s2t01.flac:f1bc119f2d9a4f682f4aa76d934cfd4e
gd1981-09-27s2t02.flac:7f2c192e8e3e56458daceef25a5b316c
gd1981-09-27s2t03.flac:8361c231514f41f1888b85945158a8e4
gd1981-09-27s2t04.flac:d979ac0036f372bc5acea7e1b2f7b45c
gd1981-09-27s2t05.flac:587b24a1d787d41439462ce4022c68b8
gd1981-09-27s2t06.flac:4ba79b0e951a6d936d351f190fecacaa
gd1981-09-27s2t07.flac:85ea0b2dbc2b5f81c50bacbedfb47d5d
gd1981-09-27s2t08.flac:4af4319032d7b90b4a06ef66cef5c9a1
gd1981-09-27s2t09.flac:64447fb88114fd11b288799b30346561
gd1981-09-27s2t10.flac:2c2bebf71c6309140363b8f1dfcb2cac
flac-md5
1e7d2d6a2a84c48f4da52c5edf7eed67 *gd1981-09-27s2t01.flac
70eb6e64bd2b3e72e74d8bd522f20551 *gd1981-09-27s2t02.flac
6caa7a88fe584f0e3c5aea1ceb69f582 *gd1981-09-27s2t03.flac
acbec77ea8693e4115cbdd251a6962cd *gd1981-09-27s2t04.flac
669ac4340cb2649265feb7de93d3748a *gd1981-09-27s2t05.flac
8bce6439c247815b61e90b21eb3536d5 *gd1981-09-27s2t06.flac
62ac03ed554a241b9cc7256badfe6d01 *gd1981-09-27s2t07.flac
892198d5e361b8e56512a41d17fd6243 *gd1981-09-27s2t08.flac
b2f59be13d4b58e66f924882bbab6c54 *gd1981-09-27s2t09.flac
6dd0c4bed34e1253cea026ebdd158c21 *gd1981-09-27s2t10.flac

Comments
Add Comment
Other Sources (comments)
SBD>Cm>PCM>Dat>CD; via... (0) 2 Nakamichi 300's (taped to... (0) flac16; Set 1... (0) flac16; Recording... (0)
Date User Comment