Browse Collections Artists Sources   Search Dates

Add Show    List Management    Help


Grateful Dead 05/29/71
Winterland Arena, San Francisco, CA
Comments Add Comment    Source Collectors    Add to Collection    Add to Want List    History
Source # 110324 Other Sources
Entered by Matt Vernon
Checksums flac-md5 , ffp
Disc Counts 1 / 1
Media Size
Date Circulated
Date Added
10/16/2010
10/16/2010
Source Summary flac16; Recording Info: SBD -> Master Reel -> CD Transfer Info: CD -> Samplitude Professional v10.02 -> Adobe Audition v1.5 -> FLAC (1 Disc Audio / 1 Disc FLAC) 
  Archive
Source Information - Download Text | Download Zip
Grateful Dead - May 29, 1971
Winterland Arena - San Francisco, CA

Recording Info:
SBD -> Master Reel -> CD

Transfer Info:
CD -> Samplitude Professional v10.02 -> Adobe Audition v1.5 -> FLAC
(1 Disc Audio / 1 Disc FLAC)

All Transfers and Mastering By Charlie Miller
[email protected]
July 21, 2008

Notes:
-- Very end of Wharf Rat cut due to reel flip
-- Master Reel transferred to CD at the Mastering Plant in L.A.
-- Thanks to Joe B. Jones for his help with the pitch correction

Setlist:
t01 - Tuning
t02 - Truckin' ->
t03 - Drums ->
t04 - The Other One ->
t05 - Wharf Rat
t06 - Sugar Magnolia ->
t07 - Deal
t08 - Not Fade Away ->
t09 - Goin' Down The Road Feeling Bad ->
t10 - Not Fade Away


SHNTOOL OUTPUT:
    length     expanded size   cdr  WAVE problems filename
     4:32.07       47997308    ---   --   -----   gd71-05-29t01.wav
     8:16.36       87579116    ---   --   -----   gd71-05-29t02.wav
     3:18.17       34967228    ---   --   -----   gd71-05-29t03.wav
    17:13.27      182284748    ---   --   -----   gd71-05-29t04.wav
    11:39.66      123458876    ---   --   -----   gd71-05-29t05.wav
     5:53.29       62337452    ---   --   -----   gd71-05-29t06.wav
     6:26.35       68172764    ---   --   -----   gd71-05-29t07.wav
     3:14.29       34289852    ---   --   -----   gd71-05-29t08.wav
     7:40.61       81287516    ---   --   -----   gd71-05-29t09.wav
     3:38.08       38474060    ---   --   -----   gd71-05-29t10.wav
    71:53.15      760848920 B                     (totals for 10 files)
Show Checksums
flac-md5
18d155da82a22fbfb559847db3a939c5 *gd71-05-29t01.flac
fc8f1408175598119aef8d593f8ee129 *gd71-05-29t02.flac
4cc9934aeadb5424b74103e997c0b147 *gd71-05-29t03.flac
1c12336f98fb345eaa4210495737d88f *gd71-05-29t04.flac
4c1c5902b1c2b029c9f4707f1deabc3b *gd71-05-29t05.flac
e8c76fa72fef1dd318f041a354170737 *gd71-05-29t06.flac
371073cbc6911cbc2c56e6ca471b2b3a *gd71-05-29t07.flac
87914b2d02c37ce68b77663e7223e076 *gd71-05-29t08.flac
327e5ea15c0a55edf11b5d2de306c7e8 *gd71-05-29t09.flac
2f19c764d89c7d45f06a8c6048fb7076 *gd71-05-29t10.flac
ffp
gd71-05-29t01.flac:a3c9b38a87db2a0d0ceceda755529ff3
gd71-05-29t02.flac:fdfe3d4d1e13abcc9923a8b7f36b0553
gd71-05-29t03.flac:9e42e82a48bb421ccea60612bb46a5f6
gd71-05-29t04.flac:0ec4810dd7f0a786d46b0fab7895fdf2
gd71-05-29t05.flac:8b4854d02fc8f55cf22c62708a69b9da
gd71-05-29t06.flac:39c791b93dce0563f4a95a8c632007c6
gd71-05-29t07.flac:60254ed863ec00f8464d7e1c50b50c31
gd71-05-29t08.flac:dbe1b689c9774d417d1c511bb9155e2e
gd71-05-29t09.flac:66fface4e7973229667d4a6a3601bb27
gd71-05-29t10.flac:3cc2f1c41d9507ff8e7094b171f73dbf

Comments
Add Comment
Other Sources (comments)
source 1:... (0)
Date User Comment