Browse Collections Artists Sources   Search Dates

Add Show    List Management    Help


Jerry Garcia Band 08/21/81
Keystone, Berkeley, CA
Comments Add Comment    Source Collectors    Add to Collection    Add to Want List    History
Source # 110342 Other Sources
Entered by Joe Jupille
Checksums ffp
Disc Counts 1 / 1
Media Size
Date Circulated
Date Added
10/17/2010
10/17/2010
Source Summary flac1644; Partial SBD, 2nd Gen cassette; Transfer: Maxell XLIIS > Nakamichi CR-5A > Edirol FA-66 > Wavelab > R8Brain > CD-Wave > TLH > FLAC 1644 tagged. 
Source Information - Download Text | Download Zip
JERRY GARCIA BAND
Keystone
Berkeley CA
08-21-1981

-- End of Set One
01 After Midnight
02 Russian Lullaby
03 I Second That Emotion
04 Tangled Up In Blue
-- Start of Set Two
05 Mission in the Rain
06 The Harder They Come

Source: Partial SBD, 2nd Gen cassette.

Transfer: Maxell XLIIS > Nakamichi CR-5A > Edirol FA-66 >
Wavelab > R8Brain > CD-Wave > TLH > FLAC 1644 tagged. 10/10

Notes: Same root source as ID-16694. Sorry, it's only
partial, but this one doesn't have the noise reduction
that was applied to that source, and sounds better.
Tape flip at start of Tangled Up. Also, the start of
Mission cuts in. THANKS to Jon Pasternak for this tape.


    length     expanded size    cdr  WAVE problems  fmt   ratio  filename
    15:02.30      159183404 B   ---   --   ---xx   flac  0.5800  jgb1981-08-21t01.flac
    14:58.69      158569532 B   ---   --   ---xx   flac  0.5390  jgb1981-08-21t02.flac
    10:27.32      110678108 B   ---   --   ---xx   flac  0.5696  jgb1981-08-21t03.flac
    11:29.15      121574924 B   ---   --   ---xx   flac  0.5761  jgb1981-08-21t04.flac
    12:22.10      130912364 B   ---   --   ---xx   flac  0.5643  jgb1981-08-21t05.flac
    11:49.57      125201708 B   ---   --   ---xx   flac  0.5553  jgb1981-08-21t06.flac
    76:09.63      806120040 B                            0.5635  (6 files)

No errors occured.
Show Checksums
ffp
jgb1981-08-21t01.flac:37d16e37ea610bc0989bb4a6c2f88892
jgb1981-08-21t02.flac:fe01ed201a4a26db5a12061432589025
jgb1981-08-21t03.flac:ade94cfa4dfb10310d75940f50594e0d
jgb1981-08-21t04.flac:d176900cd16d693b48138487e049056b
jgb1981-08-21t05.flac:0de5337f4a92992aa680490f00cb4f83
jgb1981-08-21t06.flac:59936748816b68726d74cf9e62580a23

Comments
Add Comment
Date User Comment