Browse Collections Artists Sources   Search Dates

Add Show    List Management    Help


Phish 10/16/10
North Charleston Coliseum, North Charleston, SC
Comments Add Comment    Source Collectors    Add to Collection    Add to Want List    History
Source # 110349 Other Sources
Entered by Jason Sobel
Checksums 16bit-FFP , 24bit-FFP
Disc Counts 2 / 3
Media Size
Date Circulated
Date Added
10/18/2010
10/18/2010
Source Summary flac16 & flac24; Neumann ak40 > lc3 > km100 > Lunatec V3 > Edirol R-44 (@ 24/48); SDHC card > PC > wavelab 6.1 (fades, Crystal Resampler (high), dither w/ iZotope Ozone 4) > cd wave > traders little helper > flac (level 8); Taped & Transferred by Gordon Wilson (NOTE: both 16 bit & 24 bit versions are available) 
Source Information - Download Text | Download Zip
-=-=-=-=-=-=-=-=-=-=-=-=-=-=-=-=-=-=-=-=-=-
-=-=-    16 bit / 44.1 kHz version    -=-=-
-=-=-=-=-=-=-=-=-=-=-=-=-=-=-=-=-=-=-=-=-=-

Phish
10/16/2010
North Charleston Coliseum
North Charleston, SC

source:   Neumann ak40 > lc3 > km100 (din) > Lunatec V3 > Edirol R-44 @ 24/48
location: OTS,DFC
transfer: SDHC card > PC > wavelab 6.1 > cd wave > traders little helper (flac level 8)

all editing (fades, Crystal Resampler (high), dither w/ iZotope Ozone 4) done in wavelab 6.1

*16bit/44.1khz fileset*

recorded and transferred by Gordon Wilson

A Team Dirty South Recording

Set One:

01. Intro
02. Kill Devil Falls
03. Guelah Papyrus
04. The Curtain With
05. The Mango Song
06. Sand
07. Limb by Limb
08. Sneakin' Sally Through the Alley
09. Uncle Penn
10. Pebbles and Marbles
11. Cavern >
12. David Bowie

Set Two:

01. Intro
02. Crosseyed and Painless
03. Dirt
04. Fluffhead >
05. Also Sprach Zarathustra >
06. Tweezer >
07. The Show of Life
08. You Enjoy Myself

Encore:
09. I Been Around
10. Quinn The Eskimo (The Mighty Quinn)
11. Tweezer Reprise



shntool 3.0.4
Copyright (C) 2000-2007 Jason Jordan

    length     expanded size    cdr  WAVE problems  fmt   ratio  filename
     1:13.51       12997196 B   ---   --   ---xx   flac  0.5010  phish2010-10-16s1t01.flac
     7:45.74       82200092 B   ---   --   ---xx   flac  0.5804  phish2010-10-16s1t02.flac
     6:16.17       66366428 B   ---   --   ---xx   flac  0.5404  phish2010-10-16s1t03.flac
    12:44.56      134901356 B   ---   --   ---xx   flac  0.5425  phish2010-10-16s1t04.flac
     7:21.55       77921804 B   ---   --   ---xx   flac  0.5558  phish2010-10-16s1t05.flac
    10:11.53      107905100 B   ---   --   ---xx   flac  0.5576  phish2010-10-16s1t06.flac
     7:25.13       78528620 B   ---   --   ---xx   flac  0.5608  phish2010-10-16s1t07.flac
     6:03.11       64059116 B   ---   --   ---xx   flac  0.5764  phish2010-10-16s1t08.flac
     4:49.65       51132524 B   ---   --   ---xx   flac  0.5564  phish2010-10-16s1t09.flac
     9:39.42      102234428 B   ---   --   ---xx   flac  0.5658  phish2010-10-16s1t10.flac
     4:54.39       51953372 B   ---   --   ---xx   flac  0.6033  phish2010-10-16s1t11.flac
    11:23.71      120648236 B   ---   --   ---xx   flac  0.5712  phish2010-10-16s1t12.flac
     1:39.12       17491868 B   ---   --   ---xx   flac  0.4602  phish2010-10-16s2t01.flac
    15:02.15      159148124 B   ---   --   ---xx   flac  0.5821  phish2010-10-16s2t02.flac
     4:19.50       45805244 B   ---   --   ---xx   flac  0.5114  phish2010-10-16s2t03.flac
    16:19.00      172695644 B   ---   --   ---xx   flac  0.5717  phish2010-10-16s2t04.flac
     7:05.58       75106460 B   ---   --   ---xx   flac  0.5737  phish2010-10-16s2t05.flac
    10:51.35      114918764 B   ---   --   ---xx   flac  0.5870  phish2010-10-16s2t06.flac
     6:10.61       65411516 B   ---   --   ---xx   flac  0.5774  phish2010-10-16s2t07.flac
    23:34.41      249526076 B   ---   --   ---xx   flac  0.5506  phish2010-10-16s2t08.flac
     2:16.62       24136268 B   ---   --   ---xx   flac  0.5435  phish2010-10-16s2t09.flac
     4:33.67       48314828 B   ---   --   ---xx   flac  0.6132  phish2010-10-16s2t10.flac
     4:39.38       49305020 B   ---   --   ---xx   flac  0.6133  phish2010-10-16s2t11.flac
   186:23.11     1972708084 B                            0.5656  (23 files)









-=-=-=-=-=-=-=-=-=-=-=-=-=-=-=-=-=-=-=-=-
-=-=-    24 bit / 48 kHz version    -=-=-
-=-=-=-=-=-=-=-=-=-=-=-=-=-=-=-=-=-=-=-=-

Phish
10/16/2010
North Charleston Coliseum
North Charleston, SC

source: Neumann ak40 > lc3 > km100 (din) > Lunatec V3 > Edirol R-44 @ 24/48
location: OTS,DFC
transfer: SDHC card > PC > wavelab 6.1 > cd wave > traders little helper (flac level 8)

*24bit/48khz fileset*

recorded and transferred by Gordon Wilson

A Team Dirty South Recording

Set One:

01. Intro
02. Kill Devil Falls
03. Guelah Papyrus
04. The Curtain With
05. The Mango Song
06. Sand
07. Limb by Limb
08. Sneakin' Sally Through the Alley
09. Uncle Penn
10. Pebbles and Marbles
11. Cavern >
12. David Bowie

Set Two:

01. Intro
02. Crosseyed and Painless
03. Dirt
04. Fluffhead >
05. Also Sprach Zarathustra >
06. Tweezer >
07. The Show of Life
08. You Enjoy Myself

Encore:
09. I Been Around
10. Quinn The Eskimo (The Mighty Quinn)
11. Tweezer Reprise
Show Checksums
16bit-FFP
phish2010-10-16s1t01.flac:5d3b4ec1d932849ee4fdccd9f4f5ea9f
phish2010-10-16s1t02.flac:6b9f72b29459da6877293dc7a8032c1f
phish2010-10-16s1t03.flac:b0839e442487973eb987ccc79fc5c0b1
phish2010-10-16s1t04.flac:6f63127ab1ed608728f13d0b8d16c083
phish2010-10-16s1t05.flac:58306ce2949aa7a73fae167af5ae3723
phish2010-10-16s1t06.flac:a886ac63f0fc0eb420b93bf22c207f8d
phish2010-10-16s1t07.flac:c5184a28cabc437a5847214feaa52abc
phish2010-10-16s1t08.flac:c073dba93a97b3a807e981a237fd0e36
phish2010-10-16s1t09.flac:decc0e7ade396cb5dadc53e7e9170955
phish2010-10-16s1t10.flac:3431dc4bee23c6309f243e8be4dd4625
phish2010-10-16s1t11.flac:6a3c6b617312188f5ba9eed276f0dab7
phish2010-10-16s1t12.flac:f7ca572f6f9d583f302bde915f5d9f63
phish2010-10-16s2t01.flac:8286fff472eb1131a99ec8c91373f947
phish2010-10-16s2t02.flac:90c4bee7fb9c76a5b8a0251e4c806432
phish2010-10-16s2t03.flac:972d345ecef610201389673b7d7d0da5
phish2010-10-16s2t04.flac:a6084fc4f5cecfa28c36ffc32a4b2da2
phish2010-10-16s2t05.flac:20d33865fa8cd01460d2e5187f1c9461
phish2010-10-16s2t06.flac:9192f71c6c941871fd40bd9c2a40e677
phish2010-10-16s2t07.flac:ae23972f621fdb33405035faee249aef
phish2010-10-16s2t08.flac:2231500f1f913b04df08ad392c4da587
phish2010-10-16s2t09.flac:11d7ae3ba6b80b7882cbaabb6c6849d6
phish2010-10-16s2t10.flac:7c8de81cfe5da0f69f3e6927573d0b82
phish2010-10-16s2t11.flac:a9931abb675ede17e7bf356a58358e2f
24bit-FFP
phish2010-10-16s1t01.flac:83520bef783ce345b3d5ca801f1376e0
phish2010-10-16s1t02.flac:71f4abdffc929c8f4e7ea943783e52dd
phish2010-10-16s1t03.flac:166ab1dfb148ac399d184747cdfd1b2d
phish2010-10-16s1t04.flac:3a256fb1549851d0887c23da48c58836
phish2010-10-16s1t05.flac:e88c2b7d020fe9d1df0e63abbae24e06
phish2010-10-16s1t06.flac:9e1b08e07bae5f1bfa06099609a35950
phish2010-10-16s1t07.flac:89b24d0f5e4901fb34693b4c6f1bcfd1
phish2010-10-16s1t08.flac:806a01522968add644ff63eb1d58602e
phish2010-10-16s1t09.flac:7c9ebaf2b6e7aba5a17d85931e089a78
phish2010-10-16s1t10.flac:8f4389900deffdf733b2a6dd43ee404d
phish2010-10-16s1t11.flac:e9d1fd42b93834045fd849402d2d254c
phish2010-10-16s1t12.flac:3c4a4ce4e170eab5cc7ed22bbfb20998
phish2010-10-16s2t01.flac:79b962f5c281feef0aad8bdf02864331
phish2010-10-16s2t02.flac:edbc292f42c078237b615e56bdeae28d
phish2010-10-16s2t03.flac:df7cd03591cd2e48732256a914133376
phish2010-10-16s2t04.flac:cc55efc78eebc0d51a7cec31c019f6ed
phish2010-10-16s2t05.flac:1686bc28085ac6de531edd43190c7bc9
phish2010-10-16s2t06.flac:f6d8bd01dfeb16f8bb5cd654d795ce55
phish2010-10-16s2t07.flac:28fdc24ea4b8e1463890de74fc331a00
phish2010-10-16s2t08.flac:970e130fb920cd6c341ed2ef59edd41f
phish2010-10-16s2t09.flac:9f0723f5cae4aab0395935cfa8b8949c
phish2010-10-16s2t10.flac:791d5debb5fd86804433cd9f0b3bc2c7
phish2010-10-16s2t11.flac:da82365b694ca3af951f2adac42e3eff

Comments
Add Comment
Other Sources (comments)
flac16; (FOB)... (0) flac16; Schoeps mk41... (0) flac16 &... (0) flac16; Schoeps mk4v... (0) flac16 &... (0) flac16; Schoeps mk41... (0) flac16; AKG C568EB >... (0) flac16; Schoeps... (0) flac16; Schoeps CCM4... (0) flac16; DPA 4021s >... (0) flac16; (FOB)... (0) flac16; (FOB)... (0) flac16 &... (0) flac16; AKG... (0)
Date User Comment