Browse Collections Artists Sources   Search Dates

Add Show    List Management    Help


Phish 10/22/10
Dunkin' Donuts Center, Providence, RI
Comments Add Comment    Source Collectors    Add to Collection    Add to Want List    History
Source # 110433 Other Sources
Entered by Jason Sobel
Checksums 16bit-FFP , 24bit-FFP
Disc Counts 2 / 3
Media Size
Date Circulated
Date Added
10/23/2010
10/23/2010
Source Summary flac16 & flac24; (FOB) Schoeps MK22 > KC5 > CMC6 > Sonosax SX-M2 > Apogee Mini-me > Edirol R-44 (24/96); SDHC Card > usb > Macbook Pro > Wave Editor (tracking, fades, resample(izotope)/dither(mbit+)) > XAct > FLAC (Level 8); Taped by Andy Murray and Dave Flaschner; Transferred by Andy Murray (NOTE: both 16 bit & 24 bit versions are available) 
Source Information - Download Text | Download Zip
-=-=-=-=-=-=-=-=-=-=-=-=-=-=-=-=-=-=-=-=-=-
-=-=-    16 bit / 44.1 kHz version    -=-=-
-=-=-=-=-=-=-=-=-=-=-=-=-=-=-=-=-=-=-=-=-=-

Phish
2010-10-22
Dunkin Donuts Center
Providence, MA

Recorded and transferred by Andy Murray and Dave Flashner

ORTF 60' from stage DFC
Schoeps MK22>KC5>CMC6>Sonosax SX-M2>Apogee Mini-me(aes out 24bit/96khz)>COAX>Edirol R-44  
SDHC Card>usb>Macbook Pro>Wave Editor(tracking,fades,resample(izotope)/dither(mbit+)to 16bit/44.1khz)>XAct(FLAC 8,ffp,fix sbe)

Big thanks to our team of blockers.

Disc 1:
Set 1:

01 Intro
02 Down with Disease
03 Funky Bitch
04 Fluffhead >
05 Roses Are Free
06 Rift
07 The Moma Dance
08 Ocelot
09 NICU
10 Sample in a Jar
11 Julius

Disc 2:
Set 2:

01 Intro
02 Rock & Roll >
03 Carini >
04 My Problem Right There
05 Mike's Song >
06 Sanity >
07 Weekapaug Groove

Disc 3:
Set 3:

01 Suzy Greenberg >
02 Light >
03 Character Zero >
04 2001 >
05 Loving Cup

ENCORE
06 First Tube


    length     expanded size    cdr  WAVE problems  fmt   ratio  filename
     0:57.65       10207724 B   ---   --   -----  ph2010-10-22_mk22_1644_d1t01.wav
     8:15.53       87442700 B   ---   --   -----  ph2010-10-22_mk22_1644_d1t02.wav
     6:27.55       68396204 B   ---   --   -----  ph2010-10-22_mk22_1644_d1t03.wav
    14:05.31      149130956 B   ---   --   -----  ph2010-10-22_mk22_1644_d1t04.wav
     5:18.02       56099948 B   ---   --   -----  ph2010-10-22_mk22_1644_d1t05.wav
     6:01.19       63725132 B   ---   --   -----  ph2010-10-22_mk22_1644_d1t06.wav
     7:19.06       77453756 B   ---   --   -----  ph2010-10-22_mk22_1644_d1t07.wav
     9:44.30      103088204 B   ---   --   -----  ph2010-10-22_mk22_1644_d1t08.wav
     4:59.45       52849484 B   ---   --   -----  ph2010-10-22_mk22_1644_d1t09.wav
     4:57.01       52393196 B   ---   --   -----  ph2010-10-22_mk22_1644_d1t10.wav
    10:05.16      106759676 B   ---   --   -----  ph2010-10-22_mk22_1644_d1t11.wav
     0:44.07        7778108 B   ---   --   -----  ph2010-10-22_mk22_1644_d2t01.wav
    12:49.20      135698684 B   ---   --   -----  ph2010-10-22_mk22_1644_d2t02.wav
     8:00.32       84747308 B   ---   --   -----  ph2010-10-22_mk22_1644_d2t03.wav
     5:48.08       61406060 B   ---   --   -----  ph2010-10-22_mk22_1644_d2t04.wav
     7:39.32       81042908 B   ---   --   -----  ph2010-10-22_mk22_1644_d2t05.wav
     8:39.14       91584572 B   ---   --   -----  ph2010-10-22_mk22_1644_d2t06.wav
     7:38.04       80800652 B   ---   --   -----  ph2010-10-22_mk22_1644_d2t07.wav
     6:05.55       64515404 B   ---   --   -----  ph2010-10-22_mk22_1644_d3t01.wav
    12:32.25      132711644 B   ---   --   -----  ph2010-10-22_mk22_1644_d3t02.wav
     7:05.46       75078236 B   ---   --   -----  ph2010-10-22_mk22_1644_d3t03.wav
     6:33.36       69409916 B   ---   --   -----  ph2010-10-22_mk22_1644_d3t04.wav
    10:00.65      105992924 B   ---   --   -----  ph2010-10-22_mk22_1644_d3t05.wav
     8:33.19       90537932 B   ---   --   -----  ph2010-10-22_mk22_1644_d3t06.wav
   180:21.11     1908851328 B                            1.0000  (24 files)













-=-=-=-=-=-=-=-=-=-=-=-=-=-=-=-=-=-=-=-=-
-=-=-    24 bit / 96 kHz version    -=-=-
-=-=-=-=-=-=-=-=-=-=-=-=-=-=-=-=-=-=-=-=-

Phish
2010-10-22
Dunkin Donuts Center
Providence, MA

Recorded and transferred by Andy Murray and Dave Flashner

ORTF 60' from stage DFC
Schoeps MK22>KC5>CMC6>Sonosax SX-M2>Apogee Mini-me(aes out 24bit/96khz)>COAX>Edirol R-44
SDHC Card>usb>Macbook Pro>Wave Editor(tracking,fades)>XAct(FLAC 8,ffp)

Big thanks to our team of blockers.

Disc 1:
Set 1:

01 Intro
02 Down with Disease
03 Funky Bitch
04 Fluffhead >
05 Roses Are Free
06 Rift
07 The Moma Dance
08 Ocelot
09 NICU
10 Sample in a Jar
11 Julius

Disc 2:
Set 2:

01 Intro
02 Rock & Roll >
03 Carini >
04 My Problem Right There
05 Mike's Song >
06 Sanity >
07 Weekapaug Groove >
08 Suzy Greenberg >
09 Light >
10 Character Zero >
11 2001 >
12 Loving Cup

ENCORE
13 First Tube
Show Checksums
16bit-FFP
ph2010-10-22_mk22_1644_d1t01.flac:1f14449c18467598493d55192bcc8ef2
ph2010-10-22_mk22_1644_d1t02.flac:4d4c42fd877678a051591b64186b3ab5
ph2010-10-22_mk22_1644_d1t03.flac:d3671bb9bcb81fb4c501cd27b99345e4
ph2010-10-22_mk22_1644_d1t04.flac:c15f93049331138bad06377413cd0e6e
ph2010-10-22_mk22_1644_d1t05.flac:c456792fdb49922b76a491f968f2676d
ph2010-10-22_mk22_1644_d1t06.flac:400c1482617ac1de9d8835b974e301ed
ph2010-10-22_mk22_1644_d1t07.flac:43dcbb2de63e91d0b60fb8255cb46d70
ph2010-10-22_mk22_1644_d1t08.flac:438476fc40fbcd12b66229ca08a0fd96
ph2010-10-22_mk22_1644_d1t09.flac:8dfcb513d9f8c186997bd29f527399d8
ph2010-10-22_mk22_1644_d1t10.flac:b89ee3a75269f9cba79d2f3fc6d62349
ph2010-10-22_mk22_1644_d1t11.flac:868907f3eee2ecfbf6cbd44c6174a256
ph2010-10-22_mk22_1644_d2t01.flac:a606108b9b1ca954b38fa76c160cc0bc
ph2010-10-22_mk22_1644_d2t02.flac:2267b47d4bd88bf4a45808509652ab22
ph2010-10-22_mk22_1644_d2t03.flac:e936fe5f8aeaa1e2c5b5192e42d747fc
ph2010-10-22_mk22_1644_d2t04.flac:58559d8b3c49fc5f8ea5edd17afc7fcf
ph2010-10-22_mk22_1644_d2t05.flac:90b553efd7978e27bed50d1e3b0aa2ae
ph2010-10-22_mk22_1644_d2t06.flac:3ce92f3825e7e3464e4374dbbd164018
ph2010-10-22_mk22_1644_d2t07.flac:2ecc6076e922c259c0a3f4aa6a5733f7
ph2010-10-22_mk22_1644_d3t01.flac:1afa06e0b4ed083ec15360e53181bd15
ph2010-10-22_mk22_1644_d3t02.flac:3aaf88c627de85f64d3409b4704f3bad
ph2010-10-22_mk22_1644_d3t03.flac:be52b8ffaa99ed47b11808b863c2f81b
ph2010-10-22_mk22_1644_d3t04.flac:d8f3b44c9df75fe176c3a0267b56f15d
ph2010-10-22_mk22_1644_d3t05.flac:1874170b60eab01a970e5e0c04d9fe87
ph2010-10-22_mk22_1644_d3t06.flac:c0eefa22063a96bc81256fc84105645d
24bit-FFP
ph2010-10-22_mk22_2496_d1t01.flac:335efadb34a2b32236008728004987e0
ph2010-10-22_mk22_2496_d1t02.flac:bee894fa223b6b6db7590d3a15921b11
ph2010-10-22_mk22_2496_d1t03.flac:15d5755f9941c7c5ae8de959aaca3acc
ph2010-10-22_mk22_2496_d1t04.flac:6364000b066b8536dea87b90753f9998
ph2010-10-22_mk22_2496_d1t05.flac:fe58e62243416be3ddcbbdbe9e34e03b
ph2010-10-22_mk22_2496_d1t06.flac:032d4e29417728b654c7f0b5a6437a79
ph2010-10-22_mk22_2496_d1t07.flac:eaa2ec2ffb905af0a8b3eda7dba47308
ph2010-10-22_mk22_2496_d1t08.flac:f41829a54edca748b112bfdf9a3420a5
ph2010-10-22_mk22_2496_d1t09.flac:449620f9322d0103507f0aa838915c6b
ph2010-10-22_mk22_2496_d1t10.flac:68ea5c2ebdae922cbd106ae409b96882
ph2010-10-22_mk22_2496_d1t11.flac:8f80244a285907ecd1bbc4d79b3da07d
ph2010-10-22_mk22_2496_d2t01.flac:c76447d70f6c90c353d5d409aef4f039
ph2010-10-22_mk22_2496_d2t02.flac:80da6afe4024db8fc007efbb1019a181
ph2010-10-22_mk22_2496_d2t03.flac:935da7b6413c9c95349c637ea5f3751e
ph2010-10-22_mk22_2496_d2t04.flac:b077f0c2ee435348136508ab72586b92
ph2010-10-22_mk22_2496_d2t05.flac:1a305e0d84f8927375ce88ddeab5fbf2
ph2010-10-22_mk22_2496_d2t06.flac:66ce075664c6c9c0a8722a152d6e20be
ph2010-10-22_mk22_2496_d2t07.flac:4753d449361567808798c41045937c87
ph2010-10-22_mk22_2496_d2t08.flac:19366e2e0f201be3b1f36c34a2f48662
ph2010-10-22_mk22_2496_d2t09.flac:efe9ea213eb2aff93dd2ec8133a8a5e0
ph2010-10-22_mk22_2496_d2t10.flac:6485220bfa089c9d17033ff194161966
ph2010-10-22_mk22_2496_d2t11.flac:49120374011e4a2bc96af85bf883ef0e
ph2010-10-22_mk22_2496_d2t12.flac:16288d09df6dbee045ec7cea75c132bb
ph2010-10-22_mk22_2496_d2t13.flac:0e873a76ad52625e1b0a9dea8394ed84

Comments
Add Comment
Other Sources (comments)
flac16 &... (0) flac16 &... (0) flac16 &... (0) flac16; Busman Bsc1... (0) flac16 &... (0) flac16; Schoeps CCM4... (0) flac16; DPA 4021s >... (0) flac16; Sennheiser... (0) flac16; Microtech... (0)
Date User Comment
11/09/2010 ifthir The 24 bit seed is not 24/96 it is 24/44