Browse Collections Artists Sources   Search Dates

Add Show    List Management    Help


Grateful Dead 07/07/81
Kansas City Municipal Auditorium Arena, Kansas City, MO
Comments Add Comment    Source Collectors    Add to Collection    Add to Want List    History
Source # 110637 Other Sources
Entered by Matt Vernon
Checksums ffp , flac-md5
Disc Counts 2 / 3
Media Size
Date Circulated
Date Added
11/10/2010
11/10/2010
Source Summary flac16; Matrix 60% sbd/40% aud SBD -> Cassette Master -> Reel -> Dat (shnid 109850) and Aud (Neumann KMi84's)>MC>DAT>CD (shnid 13962) 
  Archive
Source Information - Download Text | Download Zip
Grateful Dead
Municipal Auditorium
Kansas City, MO  
07/07/1981

Matrix
60% sbd/40% aud


SBD -> Cassette Master -> Reel -> Dat (shnid 109850)
Transfer Info:
Dat (Sony R500) -> Samplitude Professional v11.1 -> Adobe Audition v3.0 -> FLAC
All Transfers and Mastering By Charlie Miller
[email protected]
September 14, 2010

Aud (Neumann KMi84's)>MC>DAT>CD (shnid 13962)
EAC/SHN by Willy
[email protected]
Seeded to etree 12/17/02
Audio discs provided by Tommy Danscuk

Another installment of The Music Never Stopped Project!



Disc 1
set I

01   Minglewood Blues >
02   Bertha >
03   Dancin' In The Street
04   crowd/banter/tuning
05   Big Railroad Blues >
06   El Paso
07   crowd/tuning
08   To Lay Me Down
09   Lazy Lightning >
10   Supplication
11   crowd/tuning
12   Bird Song >
13   Looks Like Rain >
14   Deal


Disc 2
set II

01   crowd/tuning
02   Women Are Smarter
03   crowd/tuning
04   Candyman
05   Estimated Prophet >
06   Eyes Of The World >
07   Drums >

Disc 2
set II cont'd

01   Space >
02   Truckin' >
03   Goin' Down The Road Feelin' Bad >
04   Black Peter >
05   I  Need A Miracle  >
06   Good Lovin'

encore

07   Don't Ease Me In


Notes:

- The start of "Lazy Lightning" and the end of "Looks Like Rain" are missing from the aud, these have been patched in
   from the sbd
- The aud was missing around 27 seconds of "Drums," which has been patched in from the sbd
- The aud was missing around 15 seconds of "Space," which has been patched in from the sbd
- Some sections of applause and tuning were missing from the aud and have been patched in from the sbd


Thanks to the tapers and seeders


editing and matrix by
SIRMick
November 2010


shntool output:

    length     expanded size    cdr  WAVE problems  fmt   ratio  filename
     7:03.67       74774828 B   ---   --   ---xx   flac  0.5817  gd1981-07-07d1t01.flac
     5:33.66       58896476 B   ---   --   ---xx   flac  0.6043  gd1981-07-07d1t02.flac
     8:26.40       89352524 B   ---   --   ---xx   flac  0.5897  gd1981-07-07d1t03.flac
     2:07.16       22440476 B   ---   --   ---xx   flac  0.4906  gd1981-07-07d1t04.flac
     4:18.49       45626492 B   ---   --   ---xx   flac  0.6164  gd1981-07-07d1t05.flac
     5:17.24       55975292 B   ---   --   ---xx   flac  0.5791  gd1981-07-07d1t06.flac
     1:41.72       17985788 B   ---   --   ---xx   flac  0.4665  gd1981-07-07d1t07.flac
     9:04.14       95994572 B   ---   --   ---xx   flac  0.5436  gd1981-07-07d1t08.flac
     3:33.52       37695548 B   ---   --   ---xx   flac  0.6061  gd1981-07-07d1t09.flac
     6:40.71       70727036 B   ---   --   ---xx   flac  0.6157  gd1981-07-07d1t10.flac
     1:38.31       17360156 B   ---   --   ---xx   flac  0.5004  gd1981-07-07d1t11.flac
     9:26.07       99858908 B   ---   --   ---xx   flac  0.5744  gd1981-07-07d1t12.flac
     8:28.16       89648876 B   ---   --   ---xx   flac  0.5750  gd1981-07-07d1t13.flac
     6:23.34       67641212 B   ---   --   ---xx   flac  0.6290  gd1981-07-07d1t14.flac
     0:46.71        8281436 B   ---   --   ---xx   flac  0.5066  gd1981-07-07d2t01.flac
     4:48.46       50911436 B   ---   --   ---xx   flac  0.5893  gd1981-07-07d2t02.flac
     2:01.39       21436172 B   ---   --   ---xx   flac  0.4746  gd1981-07-07d2t03.flac
     7:02.48       74553740 B   ---   --   ---xx   flac  0.5607  gd1981-07-07d2t04.flac
    11:20.42      120050828 B   ---   --   ---xx   flac  0.5804  gd1981-07-07d2t05.flac
    10:08.58      107387660 B   ---   --   ---xx   flac  0.5863  gd1981-07-07d2t06.flac
     7:05.47       75080588 B   ---   --   ---xx   flac  0.5341  gd1981-07-07d2t07.flac
     7:44.40       81943724 B   ---   --   ---xx   flac  0.5271  gd1981-07-07d3t01.flac
     6:20.14       67064972 B   ---   --   ---xx   flac  0.6116  gd1981-07-07d3t02.flac
     6:28.59       68582012 B   ---   --   ---xx   flac  0.6023  gd1981-07-07d3t03.flac
     8:35.56       90977756 B   ---   --   ---xx   flac  0.5758  gd1981-07-07d3t04.flac
     3:46.14       39899372 B   ---   --   ---xx   flac  0.6244  gd1981-07-07d3t05.flac
     7:36.65       80591324 B   ---   --   ---xx   flac  0.6042  gd1981-07-07d3t06.flac
     3:10.63       33664220 B   ---   --   ---xx   flac  0.6147  gd1981-07-07d3t07.flac
   166:42.21     1764403424 B                            0.5790  (28 files)

flac fingerprints:

gd1981-07-07d1t01.flac:3418febdd29d6c1dd18335ee5fb4b6a0
gd1981-07-07d1t02.flac:62b4c7adaf6874ada2dd401b231d7097
gd1981-07-07d1t03.flac:7e64b54b5e9b4812c90bdbaba92bf6d8
gd1981-07-07d1t04.flac:ea9600a92d61095ae1092378c4673280
gd1981-07-07d1t05.flac:0c213669d955bfdc4fa716fede724a92
gd1981-07-07d1t06.flac:eabf166f0fd3bcc2d43280efa9b21c30
gd1981-07-07d1t07.flac:5c59545a91769aafe3f293176068a30a
gd1981-07-07d1t08.flac:14918466d4870ad2a8967436ea902b9c
gd1981-07-07d1t09.flac:82c0f0d5f8afde3a0081866ebf8c5248
gd1981-07-07d1t10.flac:d23c47e02e7c116c96ef4458e751368f
gd1981-07-07d1t11.flac:4ef799d9499f11abe4b0a174278b9517
gd1981-07-07d1t12.flac:fadb34557d65d3ac7d36729bea8dd1f9
gd1981-07-07d1t13.flac:6e219d9da65edb84ecdd3e86fcf4a814
gd1981-07-07d1t14.flac:0da005bf36543c5fa7e59465c9b14eac
gd1981-07-07d2t01.flac:5b589894a08127e55eed037254ec31e7
gd1981-07-07d2t02.flac:cb0ab1cb413b731ad574ea62e94f2249
gd1981-07-07d2t03.flac:ded74c738d0a75f81299fc27e320f505
gd1981-07-07d2t04.flac:fcccfa7d8346e98037cccb23338b4f01
gd1981-07-07d2t05.flac:c702d8fddc82ebad12cf736f67e5cbfb
gd1981-07-07d2t06.flac:7e5488649085971cc146173636719202
gd1981-07-07d2t07.flac:365e751ccdf199a4c7e8bf41bbfcd81b
gd1981-07-07d3t01.flac:d208f4e1920949a2863cb78a7f1a4c69
gd1981-07-07d3t02.flac:dd5d430aa2cbede3d7f2aa69ad55db7d
gd1981-07-07d3t03.flac:6347ac53b1fd96bd3c3f4e2066ca886d
gd1981-07-07d3t04.flac:b31a43ae950fc9eec927d27062de6901
gd1981-07-07d3t05.flac:785c2f6a46e6f2c50dfca6708ecdea59
gd1981-07-07d3t06.flac:6c8e4c137c7a7fdbc1519c2aa0d68333
gd1981-07-07d3t07.flac:24b354631eb6e2f183048f4394be47ba
Show Checksums
ffp
gd1981-07-07d1t01.flac:3418febdd29d6c1dd18335ee5fb4b6a0
gd1981-07-07d1t02.flac:62b4c7adaf6874ada2dd401b231d7097
gd1981-07-07d1t03.flac:7e64b54b5e9b4812c90bdbaba92bf6d8
gd1981-07-07d1t04.flac:ea9600a92d61095ae1092378c4673280
gd1981-07-07d1t05.flac:0c213669d955bfdc4fa716fede724a92
gd1981-07-07d1t06.flac:eabf166f0fd3bcc2d43280efa9b21c30
gd1981-07-07d1t07.flac:5c59545a91769aafe3f293176068a30a
gd1981-07-07d1t08.flac:14918466d4870ad2a8967436ea902b9c
gd1981-07-07d1t09.flac:82c0f0d5f8afde3a0081866ebf8c5248
gd1981-07-07d1t10.flac:d23c47e02e7c116c96ef4458e751368f
gd1981-07-07d1t11.flac:4ef799d9499f11abe4b0a174278b9517
gd1981-07-07d1t12.flac:fadb34557d65d3ac7d36729bea8dd1f9
gd1981-07-07d1t13.flac:6e219d9da65edb84ecdd3e86fcf4a814
gd1981-07-07d1t14.flac:0da005bf36543c5fa7e59465c9b14eac
gd1981-07-07d2t01.flac:5b589894a08127e55eed037254ec31e7
gd1981-07-07d2t02.flac:cb0ab1cb413b731ad574ea62e94f2249
gd1981-07-07d2t03.flac:ded74c738d0a75f81299fc27e320f505
gd1981-07-07d2t04.flac:fcccfa7d8346e98037cccb23338b4f01
gd1981-07-07d2t05.flac:c702d8fddc82ebad12cf736f67e5cbfb
gd1981-07-07d2t06.flac:7e5488649085971cc146173636719202
gd1981-07-07d2t07.flac:365e751ccdf199a4c7e8bf41bbfcd81b
gd1981-07-07d3t01.flac:d208f4e1920949a2863cb78a7f1a4c69
gd1981-07-07d3t02.flac:dd5d430aa2cbede3d7f2aa69ad55db7d
gd1981-07-07d3t03.flac:6347ac53b1fd96bd3c3f4e2066ca886d
gd1981-07-07d3t04.flac:b31a43ae950fc9eec927d27062de6901
gd1981-07-07d3t05.flac:785c2f6a46e6f2c50dfca6708ecdea59
gd1981-07-07d3t06.flac:6c8e4c137c7a7fdbc1519c2aa0d68333
gd1981-07-07d3t07.flac:24b354631eb6e2f183048f4394be47ba
flac-md5
42d8ade0f00bdb504b5855c33b162e3f *gd1981-07-07d1t01.flac
66750ba3cd7c88834000e67ca25648d4 *gd1981-07-07d1t02.flac
cf8f97ab11396ed9b0248ba72bfce5c4 *gd1981-07-07d1t03.flac
6f71e7c1eaf499b483ed07bb4adf4876 *gd1981-07-07d1t04.flac
183a8591e8cf38e64bc98561f8abe2c6 *gd1981-07-07d1t05.flac
5e279723956a7378c0530b27d0435c75 *gd1981-07-07d1t06.flac
0262a2ad1337f4e6cce64ff014c7ca5e *gd1981-07-07d1t07.flac
23d47561a3e35231bfb0a78f7ef32995 *gd1981-07-07d1t08.flac
631cc1fca51f4b5e6d71bfd184ffb77f *gd1981-07-07d1t09.flac
f47d2943f18569594e956415a4f557be *gd1981-07-07d1t10.flac
aa2eb8501281a2580bf80f7180176559 *gd1981-07-07d1t11.flac
8dbc6ff1c5c51a3123d8720dd0f72688 *gd1981-07-07d1t12.flac
dae7c9047b29b20d0e880eddd9aaee02 *gd1981-07-07d1t13.flac
d0fb4e299692ef71ad4f2636590d8f2f *gd1981-07-07d1t14.flac
c817c4cfed52c326c676a059c692836d *gd1981-07-07d2t01.flac
a3c6312d73a496962d5ee0300c119305 *gd1981-07-07d2t02.flac
3a45b198d819a515450cf48c652319c7 *gd1981-07-07d2t03.flac
fcf4a879785bbb353e15367d4e69ee94 *gd1981-07-07d2t04.flac
91bcc45baf8f01017d9c56919b4df22a *gd1981-07-07d2t05.flac
b176483066dff895202eafb2bc5deeaf *gd1981-07-07d2t06.flac
c9e81dd181d2365ec5d4578c8e33be29 *gd1981-07-07d2t07.flac
14e3a0decd9bb8ad759116f8a7a31435 *gd1981-07-07d3t01.flac
1a4f2f79b19cc0fba5f656ec761fe820 *gd1981-07-07d3t02.flac
dcfe9705454c44b8e3b83f4671df262e *gd1981-07-07d3t03.flac
f9f517a0e39a889767dcc45154c84b6b *gd1981-07-07d3t04.flac
5ad8ef25119c9ea8e85052dd85b02c01 *gd1981-07-07d3t05.flac
f8389e7855fec55407500a062be70e90 *gd1981-07-07d3t06.flac
98ae4e90089d5b299a91d2032af8e97f *gd1981-07-07d3t07.flac

Comments
Add Comment
Other Sources (comments)
1st Set Only; SBD> Cm>... (0) Complete; Aud (Neumann... (0) flac16; SBD ->... (0) flac16; Recording... (0) flac24; AUD:... (0) flac16; AUD:... (0)
Date User Comment