Browse Collections Artists Sources   Search Dates

Add Show    List Management    Help


Grateful Dead 09/02/80
Community War Memorial Auditorium, Rochester, NY
Comments Add Comment    Source Collectors    Add to Collection    Add to Want List    History
Source # 110785 Other Sources
Entered by Matt Vernon
Checksums ffp , flac-md5
Disc Counts 2 / 3
Media Size
Date Circulated
Date Added
11/21/2010
11/20/2010
Source Summary flac16; Matrix: 60% sbd/40% aud Recording Info: Discs 1 & 2: SBD -> Cassette Master -> ? -> Cool Edit Pro -> FLAC Disc 3: SBD -> Cassette Master -> Dat -> Sonic Solutions -> CD Encore: (FOB) Nakamichi 300/CP1 -> Cassette Master -> Dat -> CD Transfer Info: WAV -> Samplitude v7.02 Professional -> FLAC Transferred and Edited By Charlie Miller and FOB AUD: 2x Nakamichi CM300/CP4 shotguns > Nakamichi 550 > Maxell XLII 90's, mics on stand FOB, taped by Tim Friend. Transfer: MAC > Nakamichi DR-2 > Edirol FA-66 > Wavelab > CD-Wave > R8Brain > TLH > FLAC 1644 Tagged. Transfer by Andrew F. 
  Archive
Source Information - Download Text | Download Zip
Grateful Dead
War Memorial Auditorium
Rochester, NY
09/02/1980

Matrix
60% sbd/40% aud


Recording Info:
Discs 1 & 2: SBD -> Cassette Master -> ? -> Cool Edit Pro -> FLAC
Disc 3: SBD -> Cassette Master -> Dat -> Sonic Solutions -> CD
Encore: (FOB) Nakamichi 300/CP1 -> Cassette Master -> Dat -> CD

Transfer Info:
WAV -> Samplitude v7.02 Professional -> FLAC

Transferred and Edited By Charlie Miller
[email protected]
2/20/05


FOB AUD: 2x Nakamichi CM300/CP4 shotguns > Nakamichi 550 >
Maxell XLII 90's, mics on stand FOB, taped by Tim Friend.

Transfer: MAC > Nakamichi DR-2 > Edirol FA-66 > Wavelab >
CD-Wave > R8Brain > TLH > FLAC 1644 Tagged. Transfer by
Andrew F. 11/2009



Disc 1
set I

01   crowd/tuning
02   New Minglewood Blues
03   Sugaree >
04   El Paso
05   Friend Of The Devil
06   crowd/tuning
07   It's All Over Now
08   China Cat Sunflower >
09   I Know You Rider >
10   Lost Sailor >
11   Saint Of Circumstance >
12   Don't Ease Me In


Disc 2
set II

01   crowd/tuning
02   Althea
03   crowed/tuning
04   C C Rider
05   Ship Of Fools
06   crowd/tuning
06   Estimated Prophet >
07   Terrapin Station >
08   Playing In The Band >
09   Drums >


Disc 3
set II cont'd

01   Space >
02   Iko Iko >
03   Morning Dew >
04   Sugar Magnolia
05   crowd/tuning

encore

06   Alabama Getaway



Notes:

- The aud was missing some sections of tuning/crowd, these have been patched from the sbd
- The sbd of "It's All Over Now", "Ship Of Fools", "Terrapin Station" and "Drums" all had splices/tape flips,
   these have been patched from the aud
-  "Alabama Getaway" from the aud source has been used in both tracks rather than try and sync it with the
   source used for the sbd


Thanks to the tapers and seeders


editing and matrix
SIRMick
November 2010


shntool output:

    length     expanded size    cdr  WAVE problems  fmt   ratio  filename
     2:18.12       24371468 B   ---   --   ---xx   flac  0.5120  gd1980-09-02d1t01.flac
     7:44.25       81908444 B   ---   --   ---xx   flac  0.5599  gd1980-09-02d1t02.flac
    13:40.71      144815036 B   ---   --   ---xx   flac  0.5441  gd1980-09-02d1t03.flac
     4:26.40       47016524 B   ---   --   ---xx   flac  0.5571  gd1980-09-02d1t04.flac
     9:31.42      100823228 B   ---   --   ---xx   flac  0.5450  gd1980-09-02d1t05.flac
     1:08.67       12152828 B   ---   --   ---xx   flac  0.5041  gd1980-09-02d1t06.flac
     9:44.15      103052924 B   ---   --   ---xx   flac  0.5640  gd1980-09-02d1t07.flac
     6:07.23       64792940 B   ---   --   ---xx   flac  0.5756  gd1980-09-02d1t08.flac
     6:15.00       66150044 B   ---   --   ---xx   flac  0.5860  gd1980-09-02d1t09.flac
     6:37.03       70037900 B   ---   --   ---xx   flac  0.5549  gd1980-09-02d1t10.flac
     6:16.37       66413468 B   ---   --   ---xx   flac  0.5864  gd1980-09-02d1t11.flac
     3:25.27       36225548 B   ---   --   ---xx   flac  0.5810  gd1980-09-02d1t12.flac
     1:21.66       14443676 B   ---   --   ---xx   flac  0.4849  gd1980-09-02d2t01.flac
     9:37.22      101834588 B   ---   --   ---xx   flac  0.5963  gd1980-09-02d2t02.flac
     1:05.53       11590700 B   ---   --   ---xx   flac  0.4622  gd1980-09-02d2t03.flac
     8:08.38       86172620 B   ---   --   ---xx   flac  0.5787  gd1980-09-02d2t04.flac
     7:55.29       83858252 B   ---   --   ---xx   flac  0.5817  gd1980-09-02d2t05.flac
     1:41.15       17851724 B   ---   --   ---xx   flac  0.4931  gd1980-09-02d2t06.flac
    11:51.57      125554508 B   ---   --   ---xx   flac  0.5996  gd1980-09-02d2t07.flac
    13:04.71      138464636 B   ---   --   ---xx   flac  0.5626  gd1980-09-02d2t08.flac
    11:09.29      118079852 B   ---   --   ---xx   flac  0.5465  gd1980-09-02d2t09.flac
     8:57.57       94860908 B   ---   --   ---xx   flac  0.5110  gd1980-09-02d2t10.flac
     8:22.33       88630460 B   ---   --   ---xx   flac  0.4832  gd1980-09-02d3t01.flac
     7:40.65       81296924 B   ---   --   ---xx   flac  0.5828  gd1980-09-02d3t02.flac
    10:56.04      115727852 B   ---   --   ---xx   flac  0.5553  gd1980-09-02d3t03.flac
     8:51.56       93800156 B   ---   --   ---xx   flac  0.6078  gd1980-09-02d3t04.flac
     1:07.44       11922332 B   ---   --   ---xx   flac  0.5163  gd1980-09-02d3t05.flac
     5:27.57       57816908 B   ---   --   ---xx   flac  0.6118  gd1980-09-02d3t06.flac
   194:36.08     2059666448 B                            0.5618  (28 files)
Show Checksums
ffp
gd1980-09-02d1t01.flac:274080a2ea4357f87ea5d1a0749765d1
gd1980-09-02d1t02.flac:d6223515bba3906384248101cacff40d
gd1980-09-02d1t03.flac:5c2009418c526fdea5d51e16bb0165a1
gd1980-09-02d1t04.flac:1782e46086725e81d809600ab0c44be9
gd1980-09-02d1t05.flac:8ef312c53f5fd4fb2fd481b16d2f7d31
gd1980-09-02d1t06.flac:8fc71609eca704a43286ce778a25741b
gd1980-09-02d1t07.flac:751ac71de5613eedd14618ba13348d4d
gd1980-09-02d1t08.flac:9e21d23533799d5e4508d80ddf052d4e
gd1980-09-02d1t09.flac:8ff3cd2dfb31bdfdbc38b8dd15c6bfd5
gd1980-09-02d1t10.flac:7a6a07c5eb58889b450da8a684b62b00
gd1980-09-02d1t11.flac:7ed148efcc5fece0ff048b650f68674f
gd1980-09-02d1t12.flac:5cdf9bd088373eed2e3faaddc27c5108
gd1980-09-02d2t01.flac:946eac698f1f5251eaa49038324bf588
gd1980-09-02d2t02.flac:0e4e2a2710ef433170126e2eed9855b3
gd1980-09-02d2t03.flac:3efec398cd80d7eadd26cc7f3ff17c4c
gd1980-09-02d2t04.flac:6bb48be722e5f596db529ddacc50ea56
gd1980-09-02d2t05.flac:236833a041143e8fc89720a7ba2a097e
gd1980-09-02d2t06.flac:b003fec9b102a55168f0690e2ce7f8ef
gd1980-09-02d2t07.flac:cf75390d2b4a5f14dd65ec46807b9484
gd1980-09-02d2t08.flac:fb82d912b2cf5774d310ce808e34f512
gd1980-09-02d2t09.flac:214925c1d03d089859056f73044ea70e
gd1980-09-02d2t10.flac:c1b1ffab9e272c490ab6d42358668cf1
gd1980-09-02d3t01.flac:43dd85c6fa0e7ab0042bcf909e91eea2
gd1980-09-02d3t02.flac:8b7c9fa42281bf96664f185308a5977c
gd1980-09-02d3t03.flac:02896b248dfd76dbc3df447f56289704
gd1980-09-02d3t04.flac:4bf41595f87e8633a0af1c4f0870b7aa
gd1980-09-02d3t05.flac:42e50c2b90ab7d300cfa21cc0028f960
gd1980-09-02d3t06.flac:1af1504bad247687ea4fcef84b6d1f33
flac-md5
e9795604c6c096c073b121d3090a889b *gd1980-09-02d1t01.flac
25bd185edbce98bd50491f264dcd7bed *gd1980-09-02d1t02.flac
5b93bc9b7cddadd2da0110cfe16971d2 *gd1980-09-02d1t03.flac
e42478bb7698a9c0c9591b17586cfc4e *gd1980-09-02d1t04.flac
5a77db25d7b15f5212e2d78c18ace8c2 *gd1980-09-02d1t05.flac
c3e94d276ddfece728d68794e243325f *gd1980-09-02d1t06.flac
50e0beb742b0ee6a7c8c3a6de5c1771b *gd1980-09-02d1t07.flac
52317056e4e185b40ed81db814e8d5eb *gd1980-09-02d1t08.flac
ca9f18aba5edf9587d071786a4ca7c82 *gd1980-09-02d1t09.flac
2e0f6105405cfa23a968b639e6b5b797 *gd1980-09-02d1t10.flac
a2ad6d2d43eb388f74aa358b45027244 *gd1980-09-02d1t11.flac
03a3063b266f17f0250c6d0856f224c2 *gd1980-09-02d1t12.flac
9d8673b0aabd55353fee87ec165a78d3 *gd1980-09-02d2t01.flac
2377de88a799deb292bb06cfba28bff3 *gd1980-09-02d2t02.flac
f087890d117ea24fc082f6cea7ae091a *gd1980-09-02d2t03.flac
a3a4b59738fc1ff28216d16b257ee040 *gd1980-09-02d2t04.flac
2824e95f28e946259337e704998f0146 *gd1980-09-02d2t05.flac
36efd0cfc1a1b813a6aa2cde23f22015 *gd1980-09-02d2t06.flac
bb23178cf954f1915785515e5568d9a5 *gd1980-09-02d2t07.flac
2e4daf72d8748935c3a64316b645925a *gd1980-09-02d2t08.flac
e2a7efd7fc24317dcb352562e7357fbd *gd1980-09-02d2t09.flac
e6f196ce815eece487d75c4652a1396a *gd1980-09-02d2t10.flac
183a54d1de9b7b326f9f46f197824765 *gd1980-09-02d3t01.flac
853c90e4606a8170015233b6b19e97a6 *gd1980-09-02d3t02.flac
6c38615c6e02f4ae39dd23cc52e693eb *gd1980-09-02d3t03.flac
6e77ff2d52e617b7e1d66a6f8d6d64f5 *gd1980-09-02d3t04.flac
ebced958b31c9f7aa7e741726bf62951 *gd1980-09-02d3t05.flac
08475d252eee95b9e9c038e5a36ec5a8 *gd1980-09-02d3t06.flac

Comments
Add Comment
Other Sources (comments)
Audience Recording: MC? >... (1) AUD (FOB, unknown mics)>... (0) flac16; mixed... (7) flac16; Patched... (1) flac24; FOB AUD: 2x... (2) flac16; FOB AUD: 2x... (2) flac24; Set 2 AUD:... (0) flac16 Set 2 AUD: 2x... (0) flac16; Recorded By... (0)
Date User Comment