Browse Collections Artists Sources   Search Dates

Add Show    List Management    Help


Gov't Mule 11/21/96
Peaches, Richmond, VA
Comments Add Comment    Source Collectors    Add to Collection    Add to Want List    History
Source # 110797 Other Sources
Entered by
Checksums st5 , flac.ffp , flac.md5
Disc Counts 1 / 1
Media Size
Date Circulated
Date Added
11/21/2010
11/21/2010
Source Summary flac16; 1st Gen-DAT SBD CLONE (48k) (DATS provided by Joe Samaritano) (Dat Clones from the Bands Tapes)
Transfer: DAT Clone @16/48khz.>Sony Professional-ZA5ES>optical Out> Edirol UA5(optical in)>coax out>Marantz [email protected]/48khz
Editing/Mastering: [email protected] 24/48khz> WaveLab 6.10> R8Brain> .wav @16/44.1khz> CD Wave Editor> Trader's Little Helper> flac16 
Source Information - Download Text | Download Zip
Gov't Mule
11/21/1996
Peaches
Richmond, VA


Source: 1st Gen-DAT SBD CLONE (48k)
(DATS provided by Joe Samaritano) (Dat Clones from the Bands Tapes)

Transfer: DAT Clone @16/48khz.>Sony Professional-ZA5ES>optical Out>
Edirol UA5(optical in)>coax out>Marantz [email protected]/48khz

Editing/Mastering: [email protected] 24/48khz> WaveLab 6.10> R8Brain> .wav @16/44.1khz> CD Wave Editor>
Trader's Little Helper> flac16

Transfer by Matt Rappaport (Muletaper)11-15-2010
Edited and Mastered by Alex Ford 11-19-2010


01. Rocking Horse (7:21)
02. Temporary Saint (4:56)
03. Painted Silver Light (6:32)
04. I Shall Be Released (6:23)
05. Soulshine * (4:46)
06. John The Revelator (2:58)
07. Old Friend * (5:23)
08. Gonna Send You Back To Georgia (6:01)



Comments:

- Warren Haynes & Matt Abts acoustic - XL 102 FM Promoted

- * First time played

- All editing and mastering in WaveLab with UAD-1 in 24/48khz

- Files tagged with Tag&Rename

- Photos included (courtesy of Muletaper)

- These are the 16 bit files. The 24 bit files are available here - http://bt.etree.org/details.php?id=540336



Shntool Output:

    length     expanded size    cdr  WAVE problems  fmt   ratio  filename
     7:21.67       77950028 B   ---   --   -----    wav  1.0000  gm1996-11-21-sbd-t01.wav
     4:56.59       52353212 B   ---   --   -----    wav  1.0000  gm1996-11-21-sbd-t02.wav
     6:32.19       69193532 B   ---   --   -----    wav  1.0000  gm1996-11-21-sbd-t03.wav
     6:23.08       67580060 B   ---   --   -----    wav  1.0000  gm1996-11-21-sbd-t04.wav
     4:46.72       50619788 B   ---   --   -----    wav  1.0000  gm1996-11-21-sbd-t05.wav
     2:58.14       31432172 B   ---   --   -----    wav  1.0000  gm1996-11-21-sbd-t06.wav
     5:23.30       57047804 B   ---   --   -----    wav  1.0000  gm1996-11-21-sbd-t07.wav
     6:01.04       63689852 B   ---   --   -----    wav  1.0000  gm1996-11-21-sbd-t08.wav
    44:23.48      469866448 B                            1.0000  (8 files)
Show Checksums
st5
8e71e80554edb7d10e7b847711226c84 [shntool] gm1996-11-21-sbd-t01.flac
d02205de82c4c5fe2a373fea946a5aff [shntool] gm1996-11-21-sbd-t02.flac
a7648751ee3bac7e4834c226d9c7e6e2 [shntool] gm1996-11-21-sbd-t03.flac
2b9e244caf0d691c32756676501ebb21 [shntool] gm1996-11-21-sbd-t04.flac
ab37032dbf088d08b865cc47760d76bd [shntool] gm1996-11-21-sbd-t05.flac
06242bbd4333102e61a1410420be603d [shntool] gm1996-11-21-sbd-t06.flac
4c12d8b27ba545bc88dd7291555ff678 [shntool] gm1996-11-21-sbd-t07.flac
63bd8a3163691ffb775b6567ae14960c [shntool] gm1996-11-21-sbd-t08.flac
flac.ffp
gm1996-11-21-sbd-t01.flac:8e71e80554edb7d10e7b847711226c84
gm1996-11-21-sbd-t02.flac:d02205de82c4c5fe2a373fea946a5aff
gm1996-11-21-sbd-t03.flac:a7648751ee3bac7e4834c226d9c7e6e2
gm1996-11-21-sbd-t04.flac:2b9e244caf0d691c32756676501ebb21
gm1996-11-21-sbd-t05.flac:ab37032dbf088d08b865cc47760d76bd
gm1996-11-21-sbd-t06.flac:06242bbd4333102e61a1410420be603d
gm1996-11-21-sbd-t07.flac:4c12d8b27ba545bc88dd7291555ff678
gm1996-11-21-sbd-t08.flac:63bd8a3163691ffb775b6567ae14960c
flac.md5
ddbee3830787f9bfc538e34b23748512 *gm1996-11-21-sbd-t01.flac
8e7ee48090dda9b04eb480034631eb2d *gm1996-11-21-sbd-t02.flac
d0a20bcab4ad9bb1d45a153502490586 *gm1996-11-21-sbd-t03.flac
731986a48ed69e922299f754da1ae7f1 *gm1996-11-21-sbd-t04.flac
81b8807b3cb271cbcf23c2b717f949df *gm1996-11-21-sbd-t05.flac
e4823b2019864dfeefbfc000b6f2eee1 *gm1996-11-21-sbd-t06.flac
9c3b52b0431305895e1a9b14920bed53 *gm1996-11-21-sbd-t07.flac
6b16660099b26d10a382cbff307f61dc *gm1996-11-21-sbd-t08.flac

Comments
Add Comment
Other Sources (comments)
sbd???? (0) flac24; 1st Gen-DAT... (0)
Date User Comment