Browse Collections Artists Sources   Search Dates

Add Show    List Management    Help


Grateful Dead 05/10/80
Hartford Civic Center, Hartford, CT
Comments Add Comment    Source Collectors    Add to Collection    Add to Want List    History
Source # 110830 Other Sources
Entered by Matt Vernon
Checksums flac-md5 , ffp
Disc Counts 0 / 0
Media Size
Date Circulated
Date Added
11/22/2010
11/23/2010
Source Summary flac16; 2 X Nak CM700 with eq > Sony TC-D5M with Dolby > MAC >> Nakamichi CR7a => Korg MR-1000 >> DSF [1-bit 5.6448 MHz Stereo] >> Korg MR-1000 => Korg AudioGate >> WAV [24/96]; Taped By: Barry Glassberg 
  Archive
Source Information - Download Text | Download Zip
MOTB Release: 0161 16/44.1
Release Date: 2010-11-22
Band: Grateful Dead
Date: 1980-05-10 (Saturday)
Venue: Hartford Civic Center
Location: Hartford, CT
Analog Audience Source: FOB Master Cassettes (MAC)
Medium Stock Brands: 3 x Maxell UDXLII
Analog Lineage: 2 X Nak CM700 with eq > Sony TC-D5M with Dolby > MAC
Analog Sound Preservation: MAC >> Nakamichi CR7a => Korg MR-1000 >> DSF [1-bit 5.6448 MHz Stereo] >> Korg MR-1000 => Korg AudioGate >> WAV [24/96]
Taped By: Barry Glassberg
Transfer By: Adam Egert
Mastering By: Derek McCabe


Set 1:
Disc One
d1t01: intro
d1t02: New Minglewood Blues
d1t03: Peggy-O
d1t04: Mexicali Blues >
d1t05: El Paso
d1t06: Althea
d1t07: Passenger
d1t08: Far From Me
d1t09: Lost Sailor >
d1t10: Saint of Circumstance >
d1t11: Deal

Set 2:
Disc Two
d2t01: China Cat Sunflower >
d2t02: I Know You Rider >
d2t03: crowd
d2t04: Feel Like A Stranger >
d2t05: Comes A TIme >
d2t06: Estimated Prophet >  
d2t07: He's Gone >
d2t08: Uncle John's Band >  

Disc Three (set 2 cont'd)
d3t01: Drumz >
d3t02: Not Fade Away >
d3t03: Sugar Magnolia
~encore!
d3t04: Alabama Getaway >
d3t05: One More Saturday Night

Notes: Patch for tape flip at beginning of He's Gone:
Recorded By Bob Morris (FOB) Sony ECM-990 stereo mic > Cassette Master(Marantz Superscope CD320/Maxell UDXLII)
Cassette Master (Nakamichi DR-1) > Korg MR-1000 (1-bit/5.6MHz) >Audiogate (1-bit/5.6MHz > 24/96

last "Comes A Time": 02-09-79

SHN TOOL:

    length     expanded size    cdr  WAVE problems  fmt   ratio  filename
     1:19.06       13949756 B   ---   --   ---xx   flac  0.4921  gd1980-05-10.aud.glassberg.motb.d1t01.flac
     8:27.38       89524220 B   ---   --   ---xx   flac  0.5820  gd1980-05-10.aud.glassberg.motb.d1t02.flac
     7:19.74       77613692 B   ---   --   ---xx   flac  0.5574  gd1980-05-10.aud.glassberg.motb.d1t03.flac
     4:19.14       45720572 B   ---   --   ---xx   flac  0.5804  gd1980-05-10.aud.glassberg.motb.d1t04.flac
     6:21.74       67382492 B   ---   --   ---xx   flac  0.5502  gd1980-05-10.aud.glassberg.motb.d1t05.flac
     8:58.59       95042012 B   ---   --   ---xx   flac  0.5705  gd1980-05-10.aud.glassberg.motb.d1t06.flac
     5:34.26       58978796 B   ---   --   ---xx   flac  0.6074  gd1980-05-10.aud.glassberg.motb.d1t07.flac
     7:46.29       82270652 B   ---   --   ---xx   flac  0.5560  gd1980-05-10.aud.glassberg.motb.d1t08.flac
     6:17.49       66618092 B   ---   --   ---xx   flac  0.5648  gd1980-05-10.aud.glassberg.motb.d1t09.flac
     5:53.41       62365676 B   ---   --   ---xx   flac  0.6090  gd1980-05-10.aud.glassberg.motb.d1t10.flac
     4:50.58       51292460 B   ---   --   ---xx   flac  0.6150  gd1980-05-10.aud.glassberg.motb.d1t11.flac
     8:06.73       85902140 B   ---   --   ---xx   flac  0.5758  gd1980-05-10.aud.glassberg.motb.d2t01.flac
     6:43.29       71157452 B   ---   --   ---xx   flac  0.5976  gd1980-05-10.aud.glassberg.motb.d2t02.flac
     2:25.08       25596860 B   ---   --   ---xx   flac  0.4989  gd1980-05-10.aud.glassberg.motb.d2t03.flac
     7:49.26       82792796 B   ---   --   ---xx   flac  0.5608  gd1980-05-10.aud.glassberg.motb.d2t04.flac
     8:45.04       92619452 B   ---   --   ---xx   flac  0.5146  gd1980-05-10.aud.glassberg.motb.d2t05.flac
    10:49.23      114537740 B   ---   --   ---xx   flac  0.5641  gd1980-05-10.aud.glassberg.motb.d2t06.flac
    14:46.45      156396284 B   ---   --   ---xx   flac  0.5685  gd1980-05-10.aud.glassberg.motb.d2t07.flac
    11:36.38      122863820 B   ---   --   ---xx   flac  0.6014  gd1980-05-10.aud.glassberg.motb.d2t08.flac
    10:55.40      115636124 B   ---   --   ---xx   flac  0.5421  gd1980-05-10.aud.glassberg.motb.d3t01.flac
     9:09.61       96987116 B   ---   --   ---xx   flac  0.6131  gd1980-05-10.aud.glassberg.motb.d3t02.flac
     8:33.34       90573212 B   ---   --   ---xx   flac  0.6653  gd1980-05-10.aud.glassberg.motb.d3t03.flac
     5:18.12       56123468 B   ---   --   ---xx   flac  0.6347  gd1980-05-10.aud.glassberg.motb.d3t04.flac
     4:59.55       52873004 B   ---   --   ---xx   flac  0.6647  gd1980-05-10.aud.glassberg.motb.d3t05.flac
   177:08.16     1874817888 B                            0.5804  (24 files)
Show Checksums
flac-md5
4ef49c076d51ee9c43272dfecc18fdbc *gd1980-05-10.aud.glassberg.motb.d1t01.flac
ef3d4fd105e7a27391f64b419e7eecc1 *gd1980-05-10.aud.glassberg.motb.d1t02.flac
34ce06681fc415e656bfbad4ca99679f *gd1980-05-10.aud.glassberg.motb.d1t03.flac
6b77de12231389a7b19da3c9d2afb109 *gd1980-05-10.aud.glassberg.motb.d1t04.flac
3317d8993dff1b4457aec6f560100143 *gd1980-05-10.aud.glassberg.motb.d1t05.flac
39f79123a9fc852d0ea3723c17fe3da2 *gd1980-05-10.aud.glassberg.motb.d1t06.flac
29b12396f6afa92cfe266b5990546f2b *gd1980-05-10.aud.glassberg.motb.d1t07.flac
0dbc6de747dd34ab587a54f1ef1c4045 *gd1980-05-10.aud.glassberg.motb.d1t08.flac
9be9a23a2959edb30fc91d3ab91a8119 *gd1980-05-10.aud.glassberg.motb.d1t09.flac
136c85e4e93f7cbba4a1e32a28c2c2f8 *gd1980-05-10.aud.glassberg.motb.d1t10.flac
cd83da2e75ccf355774366505a8615bc *gd1980-05-10.aud.glassberg.motb.d1t11.flac
8e682f16613b725d936f712302656374 *gd1980-05-10.aud.glassberg.motb.d2t01.flac
6b672f291311265cad43fcf6581d6f0f *gd1980-05-10.aud.glassberg.motb.d2t02.flac
4ce5add7be4fa0f861016b8c0d807e7f *gd1980-05-10.aud.glassberg.motb.d2t03.flac
403b96c767a6895a4e7deb0ccde8b342 *gd1980-05-10.aud.glassberg.motb.d2t04.flac
a60c1dfef3135402073a349c33e9b7f7 *gd1980-05-10.aud.glassberg.motb.d2t05.flac
56e9c333ec69a17624ec510dd997e9fc *gd1980-05-10.aud.glassberg.motb.d2t06.flac
0ef288d9063e69bac25ae5fdcfaa48b3 *gd1980-05-10.aud.glassberg.motb.d2t07.flac
2b7593448db38ba792c929f09d5ca052 *gd1980-05-10.aud.glassberg.motb.d2t08.flac
9ce99d0df9c2af3c86ecfad788b09c07 *gd1980-05-10.aud.glassberg.motb.d3t01.flac
61bb6e350508d811dac81f6b46938e4c *gd1980-05-10.aud.glassberg.motb.d3t02.flac
07d8cf6f81969d3a95bef9f3702fde0d *gd1980-05-10.aud.glassberg.motb.d3t03.flac
1f68745d992a85b53660bebdfe189eab *gd1980-05-10.aud.glassberg.motb.d3t04.flac
21e82a5b4bdb945535054edbc821ac2a *gd1980-05-10.aud.glassberg.motb.d3t05.flac
ffp
gd1980-05-10.aud.glassberg.motb.d1t01.flac:efc8209975fd95789a9a63d7a4d342a7
gd1980-05-10.aud.glassberg.motb.d1t02.flac:cdce811102bcb6af244741e30293ed41
gd1980-05-10.aud.glassberg.motb.d1t03.flac:5300980f81dd3d45d99b56f4e970fb3f
gd1980-05-10.aud.glassberg.motb.d1t04.flac:d4233411af024870f710c17ddb7e3141
gd1980-05-10.aud.glassberg.motb.d1t05.flac:6edf089e535a71ffbc5c74f6ac7dfa71
gd1980-05-10.aud.glassberg.motb.d1t06.flac:34421166d4f9ae8e403dffbf8eb1deb6
gd1980-05-10.aud.glassberg.motb.d1t07.flac:2814c76f61c68960540630076ed0fd50
gd1980-05-10.aud.glassberg.motb.d1t08.flac:694b250a616fc1265280ee2599863eb5
gd1980-05-10.aud.glassberg.motb.d1t09.flac:0ba560c42b2c6918402263d2785f2ed9
gd1980-05-10.aud.glassberg.motb.d1t10.flac:0578104d0b90e31aa67838131867e275
gd1980-05-10.aud.glassberg.motb.d1t11.flac:e8529969abb8c235c05cd44a51b1eb1b
gd1980-05-10.aud.glassberg.motb.d2t01.flac:59daac820f2f935192c2366f57cb54ba
gd1980-05-10.aud.glassberg.motb.d2t02.flac:4011cf91dee60304a4670c2d47dafee9
gd1980-05-10.aud.glassberg.motb.d2t03.flac:af0e94b8cd382865525a0566d290d295
gd1980-05-10.aud.glassberg.motb.d2t04.flac:b678fc4c64f40fb74ea76000d97a5b3a
gd1980-05-10.aud.glassberg.motb.d2t05.flac:0b049014faae2a58d723444336e69514
gd1980-05-10.aud.glassberg.motb.d2t06.flac:e322a135ad2b22cfb5d5d144c66e80aa
gd1980-05-10.aud.glassberg.motb.d2t07.flac:9bd52180de8817c81fe167c653746a18
gd1980-05-10.aud.glassberg.motb.d2t08.flac:2be9749261e17ee386a68d2fb755af27
gd1980-05-10.aud.glassberg.motb.d3t01.flac:15a9cef11a88a2648c75937fa3886161
gd1980-05-10.aud.glassberg.motb.d3t02.flac:c6907c751237aa83030ceaa217e42022
gd1980-05-10.aud.glassberg.motb.d3t03.flac:8a7e6f1fc0f8de7c8e3530a356e72ac2
gd1980-05-10.aud.glassberg.motb.d3t04.flac:b832d4cb77d06b122c67fc456c4d67d2
gd1980-05-10.aud.glassberg.motb.d3t05.flac:ed296e0dc9f23a441b1148cee8059000

Comments
Add Comment
Other Sources (comments)
Recording by Steve Rolfe:... (4) Recording by Steve Rolfe:... (3) flac16; Recording by... (1) flac16; Set 2 only,... (0) flac16; Recorded by... (0) flac16; Source:(FOB)... (0) flac16; Recording... (0) flac24; AUD: 2x... (2) flac16; AUD: 2x... (2) flac24; 2 X Nak... (0) flac24; Cassette... (0) flac16/48kHz;... (0)
Date User Comment