Browse Collections Artists Sources   Search Dates

Add Show    List Management    Help


Grateful Dead 05/10/80
Hartford Civic Center, Hartford, CT
Comments Add Comment    Source Collectors    Add to Collection    Add to Want List    History
Source # 110832 Other Sources
Entered by Matt Vernon
Checksums flac-md5 , ffp
Disc Counts 1 / 0
Media Size
Date Circulated
Date Added
11/22/2010
11/23/2010
Source Summary flac24; 2 X Nak CM700 with eq > Sony TC-D5M with Dolby > MAC >> Nakamichi CR7a => Korg MR-1000 >> DSF [1-bit 5.6448 MHz Stereo] >> Korg MR-1000 => Korg AudioGate >> WAV [24/96]; Taped By: Barry Glassberg 
  Archive
Source Information - Download Text | Download Zip
MOTB Release: 0161 24/96
Release Date: 2010-11-22
Band: Grateful Dead
Date: 1980-05-10 (Saturday)
Venue: Hartford Civic Center
Location: Hartford, CT
Analog Audience Source: FOB Master Cassettes (MAC)
Medium Stock Brands: 3 x Maxell UDXLII
Analog Lineage: 2 X Nak CM700 with eq > Sony TC-D5M with Dolby > MAC
Analog Sound Preservation: MAC >> Nakamichi CR7a => Korg MR-1000 >> DSF [1-bit 5.6448 MHz Stereo] >> Korg MR-1000 => Korg AudioGate >> WAV [24/96]
Taped By: Barry Glassberg
Transfer By: Adam Egert
Mastering By: Derek McCabe


Set 1:
s1t01: intro
s1t02: New Minglewood Blues
s1t03: Peggy-O
s1t04: Mexicali Blues >
s1t05: El Paso
s1t06: Althea
s1t07: Passenger
s1t08: Far From Me
s1t09: Lost Sailor >
s1t10: Saint of Circumstance >
s1t11: Deal

Set 2:
s2t01: China Cat Sunflower >
s2t02: I Know You Rider >
s2t03: crowd
s2t04: Feel Like A Stranger >
s2t05: Comes A Time >
s2t06: Estimated Prophet >  
s2t07: He's Gone >
s2t08: Uncle John's Band >  
s2t09: Drumz >
s2t10: Not Fade Away >
s2t11: Sugar Magnolia
~encore!
s2t12: Alabama Getaway >
s2t13: One More Saturday Night

Notes:
Patch for tape flip at beginning of He's Gone (1:28 - 1:24):
Recorded By Bob Morris (FOB) Sony ECM-990 stereo mic > Cassette Master (Marantz Superscope CD320/Maxell UDXLII)
Cassette Master (Nakamichi DR-1) > Korg MR-1000 (1-bit/5.6MHz) > Audiogate (1-bit/5.6MHz > 24/96

Notes: Patch for tape flip at beginning of He's Gone:
Recorded By Bob Morris (FOB) Sony ECM-990 stereo mic > Cassette Master(Marantz Superscope CD320/Maxell UDXLII)
Cassette Master (Nakamichi DR-1) > Korg MR-1000 (1-bit/5.6MHz) >Audiogate (1-bit/5.6MHz > 24/96

last "Comes A Time": 02-09-79

SHN TOOL:

    length     expanded size    cdr  WAVE problems  fmt   ratio  filename
     1:19.088      45554444 B   cxx   --   ---xx   flac  0.5939  gd1980-05-10.aud.glassberg.motb.s1t01.flac
     8:27.504     292322504 B   cxx   --   ---xx   flac  0.6351  gd1980-05-10.aud.glassberg.motb.s1t02.flac
     7:19.993     253436258 B   cxx   --   ---xx   flac  0.6335  gd1980-05-10.aud.glassberg.motb.s1t03.flac
     4:19.182     149289050 B   cxx   --   ---xx   flac  0.6345  gd1980-05-10.aud.glassberg.motb.s1t04.flac
     6:21.993     220028006 B   cxx   --   ---xx   flac  0.6242  gd1980-05-10.aud.glassberg.motb.s1t05.flac
     8:58.776     310334942 B   cxx   --   ---xx   flac  0.6349  gd1980-05-10.aud.glassberg.motb.s1t06.flac
     5:34.357     192589664 B   cxx   --   ---xx   flac  0.6450  gd1980-05-10.aud.glassberg.motb.s1t07.flac
     7:46.386     268638440 B   cxx   --   ---xx   flac  0.6284  gd1980-05-10.aud.glassberg.motb.s1t08.flac
     6:17.651     217527080 B   cxx   --   ---xx   flac  0.6317  gd1980-05-10.aud.glassberg.motb.s1t09.flac
     5:53.544     203641568 B   cxx   --   ---xx   flac  0.6466  gd1980-05-10.aud.glassberg.motb.s1t10.flac
     4:50.774     167485802 B   cxx   --   ---xx   flac  0.6479  gd1980-05-10.aud.glassberg.motb.s1t11.flac
     8:06.976     280498136 B   cxx   --   ---xx   flac  0.6340  gd1980-05-10.aud.glassberg.motb.s2t01.flac
     6:43.389     232352222 B   cxx   --   ---xx   flac  0.6340  gd1980-05-10.aud.glassberg.motb.s2t02.flac
     2:25.098      83576522 B   cxx   --   ---xx   flac  0.5980  gd1980-05-10.aud.glassberg.motb.s2t03.flac
     7:49.345     270342632 B   cxx   --   ---xx   flac  0.6204  gd1980-05-10.aud.glassberg.motb.s2t04.flac
     8:45.058     302433668 B   cxx   --   ---xx   flac  0.6043  gd1980-05-10.aud.glassberg.motb.s2t05.flac
    10:49.307     374000990 B   cxx   --   ---xx   flac  0.6221  gd1980-05-10.aud.glassberg.motb.s2t06.flac
    14:46.595     510678944 B   cxx   --   ---xx   flac  0.6269  gd1980-05-10.aud.glassberg.motb.s2t07.flac
    11:36.506     401187278 B   cxx   --   ---xx   flac  0.6395  gd1980-05-10.aud.glassberg.motb.s2t08.flac
    10:55.533     377587244 B   cxx   --   ---xx   flac  0.6139  gd1980-05-10.aud.glassberg.motb.s2t09.flac
     9:09.822     316697228 B   cxx   --   ---xx   flac  0.6441  gd1980-05-10.aud.glassberg.motb.s2t10.flac
     8:33.450     295747232 B   cxx   --   ---xx   flac  0.6627  gd1980-05-10.aud.glassberg.motb.s2t11.flac
     5:18.153     183256340 B   cxx   --   ---xx   flac  0.6487  gd1980-05-10.aud.glassberg.motb.s2t12.flac
     4:59.721     172639088 B   cxx   --   ---xx   flac  0.6634  gd1980-05-10.aud.glassberg.motb.s2t13.flac
   177:08.202    6121845282 B                            0.6327  (24 files)

Show Checksums
flac-md5
d4e9370c26355d53509d17bf7e039cb6 *gd1980-05-10.aud.glassberg.motb.s1t01.flac
53e3d1719da174415c76d560c1b63e42 *gd1980-05-10.aud.glassberg.motb.s1t02.flac
50f795f0e5db8e5db6f6471c20fa0ea2 *gd1980-05-10.aud.glassberg.motb.s1t03.flac
18b2a120b3fdb2c381dbcd06e19d2e5f *gd1980-05-10.aud.glassberg.motb.s1t04.flac
2e06a070dcb681ca960c7f28254418c3 *gd1980-05-10.aud.glassberg.motb.s1t05.flac
61b95239ca410fded63db83ba94643cd *gd1980-05-10.aud.glassberg.motb.s1t06.flac
cd64694f0ea81db4cb63464a5274ffd7 *gd1980-05-10.aud.glassberg.motb.s1t07.flac
325a922219a59c8bc6bdda65ab8f7b09 *gd1980-05-10.aud.glassberg.motb.s1t08.flac
0a0c3bff0170aa624dd4275aab04a81a *gd1980-05-10.aud.glassberg.motb.s1t09.flac
d783a06c6f64448e4885cae8ba421d74 *gd1980-05-10.aud.glassberg.motb.s1t10.flac
f2263a28b393f221f80d54366c086330 *gd1980-05-10.aud.glassberg.motb.s1t11.flac
f9a2b9ec0b87f246825f090b8a62b9f3 *gd1980-05-10.aud.glassberg.motb.s2t01.flac
c6fd16fcc0931b9db226262b23714d18 *gd1980-05-10.aud.glassberg.motb.s2t02.flac
324be10a7b1a4a004fe0e5bbdefbaa37 *gd1980-05-10.aud.glassberg.motb.s2t03.flac
e356281b15761b97f54e0eb95b3dc93a *gd1980-05-10.aud.glassberg.motb.s2t04.flac
012cf17cb32faddac2756c19fce91304 *gd1980-05-10.aud.glassberg.motb.s2t05.flac
8961d07969a90d507fb7e0b32840ee3e *gd1980-05-10.aud.glassberg.motb.s2t06.flac
c183dec00effc5a38731a49587907ac7 *gd1980-05-10.aud.glassberg.motb.s2t07.flac
4fe626b6f048028da6c72c885a258afc *gd1980-05-10.aud.glassberg.motb.s2t08.flac
1d547fd042282c452d47d688f09b2b08 *gd1980-05-10.aud.glassberg.motb.s2t09.flac
a79f9f5de7d86a38032e6a013ecd6cf5 *gd1980-05-10.aud.glassberg.motb.s2t10.flac
44134708783daf2fa0f09571b428d359 *gd1980-05-10.aud.glassberg.motb.s2t11.flac
fe03352455295e63e000241c6b1c5e18 *gd1980-05-10.aud.glassberg.motb.s2t12.flac
44fa0432050a0ee876af77a41a3f09a4 *gd1980-05-10.aud.glassberg.motb.s2t13.flac
ffp
gd1980-05-10.aud.glassberg.motb.s1t01.flac:4a0f14aedafe2e58fe2db9bad40f27bf
gd1980-05-10.aud.glassberg.motb.s1t02.flac:94f5a20e115d3080a46889e617b7ee50
gd1980-05-10.aud.glassberg.motb.s1t03.flac:cbb6aa79432b861790b2fff1869510e9
gd1980-05-10.aud.glassberg.motb.s1t04.flac:da3c42b20067db7ae414f405197c62db
gd1980-05-10.aud.glassberg.motb.s1t05.flac:4f5448abc21352f78084c5ad93784af2
gd1980-05-10.aud.glassberg.motb.s1t06.flac:e7fb884d1fd61f20b8c2d2f7e1038695
gd1980-05-10.aud.glassberg.motb.s1t07.flac:4857f133a95a6e828f8be062331aafd0
gd1980-05-10.aud.glassberg.motb.s1t08.flac:ede308fb6c37cdd041a9e881aa3c9571
gd1980-05-10.aud.glassberg.motb.s1t09.flac:5442bd6cb625638ef339d3f6c2bddcb6
gd1980-05-10.aud.glassberg.motb.s1t10.flac:eef4d0d9bcfc4b813c092002dbb75472
gd1980-05-10.aud.glassberg.motb.s1t11.flac:8fe09fdbe46c8bd88d47d6b979a442ba
gd1980-05-10.aud.glassberg.motb.s2t01.flac:2f50df681150d78decde4e9b74e5378c
gd1980-05-10.aud.glassberg.motb.s2t02.flac:f0a14d58c50c17582369c89ee2ac8e3c
gd1980-05-10.aud.glassberg.motb.s2t03.flac:3caa9a53d3e8a48d3857a7d947ebd911
gd1980-05-10.aud.glassberg.motb.s2t04.flac:30823795624ac289a025d3188e18ee74
gd1980-05-10.aud.glassberg.motb.s2t05.flac:cdf1c360ba82373e14754f293bfa6b7e
gd1980-05-10.aud.glassberg.motb.s2t06.flac:8e81af382af7adda325fe75423c0d490
gd1980-05-10.aud.glassberg.motb.s2t07.flac:9e38484e2dcc5a54440c7f7340de5f81
gd1980-05-10.aud.glassberg.motb.s2t08.flac:8ba8ffd7f7e9d89541bbef91333b3ccb
gd1980-05-10.aud.glassberg.motb.s2t09.flac:90888ebf87954c33b4c8ca34b88a8c7d
gd1980-05-10.aud.glassberg.motb.s2t10.flac:97fd88d05fa4f2c3829a25466ba70055
gd1980-05-10.aud.glassberg.motb.s2t11.flac:877dee01de3815e49a8014f7af102ccf
gd1980-05-10.aud.glassberg.motb.s2t12.flac:9ab99b06ff6c40374c0dadd21694c4af
gd1980-05-10.aud.glassberg.motb.s2t13.flac:1cf62026e2f0354aa4fb43e57320d2d5

Comments
Add Comment
Other Sources (comments)
Recording by Steve Rolfe:... (4) Recording by Steve Rolfe:... (3) flac16; Recording by... (1) flac16; Set 2 only,... (0) flac16; Recorded by... (0) flac16; Source:(FOB)... (0) flac16; Recording... (0) flac24; AUD: 2x... (2) flac16; AUD: 2x... (2) flac16; 2 X Nak... (0) flac24; Cassette... (0) flac16/48kHz;... (0)
Date User Comment