Browse Collections Artists Sources   Search Dates

Add Show    List Management    Help


Grateful Dead 03/27/87
Hartford Civic Center, Hartford, CT
Comments Add Comment    Source Collectors    Add to Collection    Add to Want List    History
Source # 111241 Other Sources
Entered by Matt Vernon
Checksums ffp , flac-md5
Disc Counts 0 / 0
Media Size
Date Circulated
Date Added
12/18/2010
12/18/2010
Source Summary flac24; Source: SBD (Matrix) > Metal cassettes 1st Gen > XLII-S 1st Set and MX-S 2nd Set, 2nd Gen cassettes. With thanks to Seaweed1010. Transfer: Cassettes > Nakamichi CR-5A > Edirol FA-66 > Wavelab > CD-Wave > TLH > FLAC 2448 tagged. Dec 2010 Transfer by Andrew F. 
  Archive
Source Information - Download Text | Download Zip
GRATEFUL DEAD
Civic Center
Hartford CT
03-27-1987

24bit/48kHz file-set

s1t01 Alabama Getaway >
s1t02 Greatest Story Ever Told
s1t03 West L.A. Fadeaway
s1t04 Little Red Rooster
s1t05 Brown Eyed Women
s1t06 Beat it on Down the Line
s1t07 Tennessee Jed
s1t08 Music Never Stopped

s2t01 crowd & tuning
s2t02 Touch of Grey >
s2t03 Samson & Delilah >
s2t04 Cumberland Blues
s2t05 Estimated Prophet >
s2t06 Eyes of the World >
s2t07 Drums >
s2t08 Space >
s2t09 Uncle John's Band >
s2t10 Morning Dew
s2t11 Encore: Johnny B. Goode

Source: SBD (Matrix) > Metal cassettes 1st Gen > XLII-S 1st Set
and MX-S 2nd Set, 2nd Gen cassettes. With thanks to Seaweed1010.

Transfer: Cassettes > Nakamichi CR-5A > Edirol FA-66 > Wavelab >
CD-Wave > TLH > FLAC 2448 tagged. Dec 2010 Transfer by Andrew F.

Note: Same root source as ID-95717, this one sounds quite a bit
different, YMMV. ID-89300 patch (upsampled) in Drums 8:08 > 9:01.

    length     expanded size    cdr  WAVE problems  fmt   ratio  filename
     4:55.533      85113644 B   cxx   --   ---xx   flac  0.7848  gd1987-03-27s1t01.flac
     4:26.693      76807724 B   cxx   --   ---xx   flac  0.7859  gd1987-03-27s1t02.flac
     8:16.053     142863404 B   cxx   --   ---xx   flac  0.7767  gd1987-03-27s1t03.flac
     9:13.693     159463724 B   cxx   --   ---xx   flac  0.7781  gd1987-03-27s1t04.flac
     6:24.333     110688044 B   cxx   --   ---xx   flac  0.7853  gd1987-03-27s1t05.flac
     3:23.413      58583084 B   cxx   --   ---xx   flac  0.8000  gd1987-03-27s1t06.flac
     8:26.000     145728044 B   cxx   --   ---xx   flac  0.7913  gd1987-03-27s1t07.flac
     8:24.410     145269986 B   cxx   --   ---xx   flac  0.7993  gd1987-03-27s1t08.flac
     0:47.533      13689644 B   cxx   --   ---xx   flac  0.7229  gd1987-03-27s2t01.flac
     6:05.667     105312044 B   cxx   --   ---xx   flac  0.7848  gd1987-03-27s2t02.flac
     8:03.800     139334444 B   cxx   --   ---xx   flac  0.7837  gd1987-03-27s2t03.flac
     5:31.853      95573804 B   cxx   --   ---xx   flac  0.7777  gd1987-03-27s2t04.flac
    10:18.013     177987884 B   cxx   --   ---xx   flac  0.7754  gd1987-03-27s2t05.flac
     8:30.053     146895404 B   cxx   --   ---xx   flac  0.7801  gd1987-03-27s2t06.flac
     9:03.747     156599084 B   cxx   --   ---xx   flac  0.7425  gd1987-03-27s2t07.flac
     7:27.360     128839724 B   cxx   --   ---xx   flac  0.7266  gd1987-03-27s2t08.flac
     7:25.200     128217644 B   cxx   --   ---xx   flac  0.7794  gd1987-03-27s2t09.flac
    10:59.427     189914924 B   cxx   --   ---xx   flac  0.7634  gd1987-03-27s2t10.flac
     4:50.470      83655500 B   cxx   --   ---xx   flac  0.7857  gd1987-03-27s2t11.flac
   132:33.253    2290537754 B                            0.7756  (19 files)

No errors occured.
Show Checksums
ffp
gd1987-03-27s1t01.flac:db5e3751d3ec1a99ee8f5b5bfd693aa9
gd1987-03-27s1t02.flac:0de14c7726a500027664bf4ec150dccd
gd1987-03-27s1t03.flac:35cda12cf53da67b15f0c04fb1cebac4
gd1987-03-27s1t04.flac:f40ab2aa83817cb9fb22fae6e955a74b
gd1987-03-27s1t05.flac:ff6681498c567403c6b2a3a6ae4e3a44
gd1987-03-27s1t06.flac:e23283bcca26eeacceaeae2864cf2fc2
gd1987-03-27s1t07.flac:9a4cd706c315dbd93a4eeb5840abf8c9
gd1987-03-27s1t08.flac:8d1050417587acbdc85a881bbc39379b
gd1987-03-27s2t01.flac:39666017777204227a0efc2793b9dbcd
gd1987-03-27s2t02.flac:e0b8c5d9bc5a3dc0775e3fe7ee482abc
gd1987-03-27s2t03.flac:fe4e6a9320cd8567e919a5f1cfa5c5ab
gd1987-03-27s2t04.flac:41a7cc7dd696bdea1b8d622f150d03ef
gd1987-03-27s2t05.flac:05d5be401ed79e87e6959ab19b1c2217
gd1987-03-27s2t06.flac:20c3f0e14ed730310c2d9c24d627e31e
gd1987-03-27s2t07.flac:6c411de6dee4b26b4ef56883a7c53def
gd1987-03-27s2t08.flac:7d9a220efc4ec551aa9c1a2f3518d750
gd1987-03-27s2t09.flac:ac31d1f28d3f18aab4f2ce3153e31762
gd1987-03-27s2t10.flac:1b22a2cc4f10ebf58e9366addd669264
gd1987-03-27s2t11.flac:142ebcc5352fa2bbe30a444539a6fb65
flac-md5
d87e1f2c222bb0a6bcffec36721d3a34 *gd1987-03-27s1t01.flac
a7868a2f5b76a3eab0bb4329ff283a89 *gd1987-03-27s1t02.flac
d853aec4b3132c42e7d18fa857b01931 *gd1987-03-27s1t03.flac
2052f0500c2515c8987786b9ccef7f33 *gd1987-03-27s1t04.flac
426586fca4d54f6deef87f80eb3ce01c *gd1987-03-27s1t05.flac
8389daa6c11ed92e92772f58d6a7da56 *gd1987-03-27s1t06.flac
669bb508ef7e1267c55d91b6cff569c3 *gd1987-03-27s1t07.flac
fbc0f0d48d4fa403738659c9d599db63 *gd1987-03-27s1t08.flac
9e18ffa4f35eff3ad25290dc204db412 *gd1987-03-27s2t01.flac
5da91d54e6584bc614f2f0636ca7c1dc *gd1987-03-27s2t02.flac
ec086cbfa69c8b93378f31a649a24282 *gd1987-03-27s2t03.flac
12e1230bfe3e0345bd75734cd4d7d5c3 *gd1987-03-27s2t04.flac
c4e9fb5f5f1038f4e04269d6ed576099 *gd1987-03-27s2t05.flac
81335db7c7013d60b884b60d5aac5c5a *gd1987-03-27s2t06.flac
48b84007b4e634b87413b22fd48466ec *gd1987-03-27s2t07.flac
35b2366826aba565b011235c32631971 *gd1987-03-27s2t08.flac
a5fb580d773c6720e266570dde10ed97 *gd1987-03-27s2t09.flac
7432a11ad5a3b5fa88bb68e53b8710cf *gd1987-03-27s2t10.flac
5fab1aff06fafaeb966bffc3978da224 *gd1987-03-27s2t11.flac

Comments
Add Comment
Other Sources (comments)
Audience Master Cassette... (1) flac16; taper : Joe... (0) flac16; Recording... (0) flac16; Source: (2x)... (0) flac16; Recording... (0) flac24; source: (2)... (0) flac24; Recording... (0) flac16; Recording... (0) flac16; Set 2, OTS... (0)
Date User Comment