Browse Collections Artists Sources   Search Dates

Add Show    List Management    Help


Zero 08/31/84
Sleeping Lady Cafe, Fairfax, CA
Comments Add Comment    Source Collectors    Add to Collection    Add to Want List    History
Source # 111306 Other Sources
Entered by
Checksums ffp
Disc Counts 1 / 1
Media Size
Date Circulated
Date Added
02/11/2006
12/26/2010
Source Summary SBD > Cm > ? > CD > EAC > ? > Flac 
Source Information - Download Text | Download Zip
Zero
08-31-84
Sleeping Lady Cafe, Fairfax, CA

Source: SBD>Cm>?>CD>EAC>?>Flac

d1t01 Tangled Hangers
d1t02 Baby Baby
d1t03 Girls Drums
d1t04 Severe Tire Damage
d1t05 Unknown Blues >
d1t06 Tear Tags
d1t07 Cissy Strut
d1t08 The Train
d1t09 Straight Jackets
d2t01 Rigor Mortis
d2t02 Try A Little Tenderness
d2t03 Golden Road


Shntool:
    length     expanded size    cdr  WAVE problems  fmt   ratio  filename
     5:42.34       60408812 B   ---   --   ---xx   flac  0.4695  zero1984-08-31d1t01.flac
     6:43.15       71124524 B   ---   --   ---xx   flac  0.4482  zero1984-08-31d1t02.flac
     5:34.05       58929404 B   ---   --   ---xx   flac  0.4354  zero1984-08-31d1t03.flac
    10:12.40      108050924 B   ---   --   ---xx   flac  0.4518  zero1984-08-31d1t04.flac
     9:47.18      103589180 B   ---   --   ---xx   flac  0.4472  zero1984-08-31d1t05.flac
     8:53.00       94021244 B   ---   --   ---xx   flac  0.4807  zero1984-08-31d1t06.flac
     8:19.02       88028348 B   ---   --   ---xx   flac  0.4556  zero1984-08-31d1t07.flac
     5:37.32       59522108 B   ---   --   ---xx   flac  0.4987  zero1984-08-31d1t08.flac
     9:08.03       96674300 B   ---   --   ---xx   flac  0.4837  zero1984-08-31d1t09.flac
     7:48.02       82559948 B   ---   --   ---xx   flac  0.4556  zero1984-08-31d2t01.flac
     6:41.12       70764668 B   ---   --   ---xx   flac  0.4615  zero1984-08-31d2t02.flac
     6:34.47       69612188 B   ---   --   ---xx   flac  0.4736  zero1984-08-31d2t03.flac
    91:00.60      963285648 B                            0.4630  (12 files)


ffp:
zero1984-08-31d1t01.flac:3d1f3ef0b7623a1cdb3bbc812e77c017
zero1984-08-31d1t02.flac:b77f00eb60201dda3f69d15c735d35aa
zero1984-08-31d1t03.flac:4edfa5706903fe5ccb52a6714e054e6c
zero1984-08-31d1t04.flac:30730d5fbdd9899a82fecbbdca15981d
zero1984-08-31d1t05.flac:6c546295df83fd211a8870d966cf629c
zero1984-08-31d1t06.flac:f25b8d4e5e1c83f65b7a76334f038e24
zero1984-08-31d1t07.flac:5fcaf88e44b8b223165bd07e248640bc
zero1984-08-31d1t08.flac:878c4665278f37e96de35dec4edcfac8
zero1984-08-31d1t09.flac:aa55e396a6fe795cce795178aade6179
zero1984-08-31d2t01.flac:b4d19ecb1393072ae64b2cca50f7a515
zero1984-08-31d2t02.flac:579b809d8d8457472109580b8852ab8c
zero1984-08-31d2t03.flac:50e1cc62dd8b0840ab58db90dbe7accf
Show Checksums
ffp
zero1984-08-31d1t01.flac:3d1f3ef0b7623a1cdb3bbc812e77c017
zero1984-08-31d1t02.flac:b77f00eb60201dda3f69d15c735d35aa
zero1984-08-31d1t03.flac:4edfa5706903fe5ccb52a6714e054e6c
zero1984-08-31d1t04.flac:30730d5fbdd9899a82fecbbdca15981d
zero1984-08-31d1t05.flac:6c546295df83fd211a8870d966cf629c
zero1984-08-31d1t06.flac:f25b8d4e5e1c83f65b7a76334f038e24
zero1984-08-31d1t07.flac:5fcaf88e44b8b223165bd07e248640bc
zero1984-08-31d1t08.flac:878c4665278f37e96de35dec4edcfac8
zero1984-08-31d1t09.flac:aa55e396a6fe795cce795178aade6179
zero1984-08-31d2t01.flac:b4d19ecb1393072ae64b2cca50f7a515
zero1984-08-31d2t02.flac:579b809d8d8457472109580b8852ab8c
zero1984-08-31d2t03.flac:50e1cc62dd8b0840ab58db90dbe7accf

Comments
Add Comment
Date User Comment