Browse Collections Artists Sources   Search Dates

Add Show    List Management    Help


Zero 05/24/87
Bolinas Community Center, Bolinas, CA
Comments Add Comment    Source Collectors    Add to Collection    Add to Want List    History
Source # 111310 Other Sources
Entered by Todd
Checksums ffp
Disc Counts 1 / 2
Media Size
Date Circulated
Date Added
03/26/2010
12/26/2010
Source Summary SBD > Cm > ? > CD > EAC > CDWav > Flac 
Source Information - Download Text | Download Zip
Zero
05/24/87
Bolinas Community Center - Bolinas, CA

Source: SBD > Cm > ? > CD > EAC > CDWav > Flac

    
Set 1:

d1t01 Intro Jam >
d1t02 Rigor Mortis
d1t03 Baby Baby
d1t04 Tangled Hangers
d1t05 Riding With The King
d1t06 Severe Tire Damage >
d1t07 Little Wing

Set 2:

d1t08 Little Martha
d1t09 Tear Tags Off Mattresses
d2t01 Try A Little Tenderness
d2t02 Goin' Down

Encore:
d2t03 Wondering Where You Are

shntool:

    length     expanded size    cdr  WAVE problems  fmt   ratio  filename
     7:12.52       76327148 B   ---   --   ---xx   flac  0.5688  zero1987-05-24d1t01.flac
     6:48.02       71975948 B   ---   --   ---xx   flac  0.5885  zero1987-05-24d1t02.flac
     8:36.64       91172972 B   ---   --   ---xx   flac  0.6114  zero1987-05-24d1t03.flac
     5:57.70       63139484 B   ---   --   ---xx   flac  0.6091  zero1987-05-24d1t04.flac
     6:51.59       72639212 B   ---   --   ---xx   flac  0.5809  zero1987-05-24d1t05.flac
     8:35.40       90940124 B   ---   --   ---xx   flac  0.5552  zero1987-05-24d1t06.flac
     5:09.49       54622892 B   ---   --   ---xx   flac  0.5800  zero1987-05-24d1t07.flac
     6:39.19       70428332 B   ---   --   ---xx   flac  0.5909  zero1987-05-24d1t08.flac
    12:56.54      137013452 B   ---   --   ---xx   flac  0.5908  zero1987-05-24d1t09.flac
     6:13.58       65933660 B   ---   --   ---xx   flac  0.5588  zero1987-05-24d2t01.flac
     7:28.63       79175420 B   ---   --   ---xx   flac  0.6054  zero1987-05-24d2t02.flac
    12:01.23      127238540 B   ---   --   ---xx   flac  0.5402  zero1987-05-24d2t03.flac
    94:32.28     1000607184 B                            0.5801  (12 files)



ffp:
zero1987-05-24d1t01.flac:d47f2b5bb917aa664cf8984995273d52
zero1987-05-24d1t02.flac:2bbe14f9d479eac980d7c1e2bf0bbdf1
zero1987-05-24d1t03.flac:f3e927e6f5ae866f2883f3dbd0f2bc27
zero1987-05-24d1t04.flac:8bd3ae7b3e0343372a4f4f36bd90997f
zero1987-05-24d1t05.flac:71b96dd64a6430c5574e8dadf2b0c36b
zero1987-05-24d1t06.flac:39cd767da838a3ef47dcb1931450f2d3
zero1987-05-24d1t07.flac:005a4fafb7cd21bd13ce6db6380f88a0
zero1987-05-24d1t08.flac:f1627a91b560881fca6ba7911d2f70f9
zero1987-05-24d1t09.flac:acdaaa328edb3b8a2d07668ba1ab9ea2
zero1987-05-24d2t01.flac:7d09f59225a110a33090af898d8339b7
zero1987-05-24d2t02.flac:2c005022f5be5b23136457d5529a9c1f
zero1987-05-24d2t03.flac:f7fae5acd324b2acceef9cddf5e5801c
Show Checksums
ffp
zero1987-05-24d1t01.flac:d47f2b5bb917aa664cf8984995273d52
zero1987-05-24d1t02.flac:2bbe14f9d479eac980d7c1e2bf0bbdf1
zero1987-05-24d1t03.flac:f3e927e6f5ae866f2883f3dbd0f2bc27
zero1987-05-24d1t04.flac:8bd3ae7b3e0343372a4f4f36bd90997f
zero1987-05-24d1t05.flac:71b96dd64a6430c5574e8dadf2b0c36b
zero1987-05-24d1t06.flac:39cd767da838a3ef47dcb1931450f2d3
zero1987-05-24d1t07.flac:005a4fafb7cd21bd13ce6db6380f88a0
zero1987-05-24d1t08.flac:f1627a91b560881fca6ba7911d2f70f9
zero1987-05-24d1t09.flac:acdaaa328edb3b8a2d07668ba1ab9ea2
zero1987-05-24d2t01.flac:7d09f59225a110a33090af898d8339b7
zero1987-05-24d2t02.flac:2c005022f5be5b23136457d5529a9c1f
zero1987-05-24d2t03.flac:f7fae5acd324b2acceef9cddf5e5801c

Comments
Add Comment
Other Sources (comments)
SBD > Cm > ? > CD > EAC >... (0)
Date User Comment