Browse Collections Artists Sources   Search Dates

Add Show    List Management    Help


Zero 03/19/93
Sweetwater Saloon, Mill Valley, CA
Comments Add Comment    Source Collectors    Add to Collection    Add to Want List    History
Source # 111314 Other Sources
Entered by Todd
Checksums ffp
Disc Counts 1 / 2
Media Size
Date Circulated
Date Added
03/25/2007
12/26/2010
Source Summary Unknown Mics > ? > CD > EAC > Flac 
Source Information - Download Text | Download Zip
Zero
03-19-1993
Sweetwater Saloon, Mill Valley, Ca

Source: Unknown Mics > ? > CD > EAC > Flac


Set 1:

d1t01 Golden Road
d1t02 Catalina
d1t03 Roll me Over
d1t04 Theme From Nancy Germany
d1t05 Rigor Mortis
d2t01 End Of The World Blues
d2t02 Horses

Set 2:

d2t03 Home On The Range
d2t04 Drums->
d2t05 Highway 61
d2t06 Riding With The King
d2t07 Chance In A Million
d2t08 Baby Baby
d3t01 Greggs Eggs
d3t02 Little Wing


shntool:

    length     expanded size    cdr  WAVE problems  fmt   ratio  filename
    15:19.16      162149276 B   ---   --   ---xx   flac  0.2283  zero1993-03-19d1t01.flac
    11:50.39      125335772 B   ---   --   ---xx   flac  0.2450  zero1993-03-19d1t02.flac
    14:32.18      153863180 B   ---   --   ---xx   flac  0.2417  zero1993-03-19d1t03.flac
     9:27.04      100028252 B   ---   --   ---xx   flac  0.2389  zero1993-03-19d1t04.flac
    14:35.21      154399436 B   ---   --   ---xx   flac  0.2400  zero1993-03-19d1t05.flac
    11:54.48      126062540 B   ---   --   ---xx   flac  0.1715  zero1993-03-19d2t01.flac
     8:43.43       92358380 B   ---   --   ---xx   flac  0.2161  zero1993-03-19d2t02.flac
    11:53.34      125853212 B   ---   --   ---xx   flac  0.2184  zero1993-03-19d2t03.flac
     4:33.25       48216044 B   ---   --   ---xx   flac  0.2362  zero1993-03-19d2t04.flac
     8:59.20       95126684 B   ---   --   ---xx   flac  0.2635  zero1993-03-19d2t05.flac
     7:22.28       78034700 B   ---   --   ---xx   flac  0.2766  zero1993-03-19d2t06.flac
     8:13.07       86981708 B   ---   --   ---xx   flac  0.2377  zero1993-03-19d2t07.flac
    10:30.45      111237884 B   ---   --   ---xx   flac  0.2433  zero1993-03-19d2t08.flac
    15:07.00      159994844 B   ---   --   ---xx   flac  0.2619  zero1993-03-19d3t01.flac
    10:52.54      115139852 B   ---   --   ---xx   flac  0.1887  zero1993-03-19d3t02.flac
   163:54.27     1734781764 B                            0.2331  (15 files)


ffp:

zero1993-03-19d1t01.flac:8ddab46afa8e78a8252c6a1191cf76e6
zero1993-03-19d1t02.flac:71e0334364217dbf0c6ede21dcef2b49
zero1993-03-19d1t03.flac:5ed0355e63559ae4903f8840c045677e
zero1993-03-19d1t04.flac:58560ff61006ead3e7e7c3e7323f0e08
zero1993-03-19d1t05.flac:be01a99e0848b58043b7516341b06cea
zero1993-03-19d2t01.flac:7ad59047c75cf2e090f1377d0de85ef2
zero1993-03-19d2t02.flac:cff6f47707fb280c5fd4da5c663f6cc1
zero1993-03-19d2t03.flac:6497d6cbca58a72407073df6004d4b13
zero1993-03-19d2t04.flac:638a9dc1bcf14b5867c4589e7953f9f0
zero1993-03-19d2t05.flac:2c71d1f85b54fa5875977f4f853531f8
zero1993-03-19d2t06.flac:6d15e4f2cc008c7687a4defb4e1859d7
zero1993-03-19d2t07.flac:759d465046fffca13731f62108c11e0c
zero1993-03-19d2t08.flac:8725ba254435abd321bf34393058f5e7
zero1993-03-19d3t01.flac:f2fc4d75ed048bab3b0edfe1d0ddec3c
zero1993-03-19d3t02.flac:40a99a290f1ee4c2d4286bbc76515739
Show Checksums
ffp
zero1993-03-19d1t01.flac:8ddab46afa8e78a8252c6a1191cf76e6
zero1993-03-19d1t02.flac:71e0334364217dbf0c6ede21dcef2b49
zero1993-03-19d1t03.flac:5ed0355e63559ae4903f8840c045677e
zero1993-03-19d1t04.flac:58560ff61006ead3e7e7c3e7323f0e08
zero1993-03-19d1t05.flac:be01a99e0848b58043b7516341b06cea
zero1993-03-19d2t01.flac:7ad59047c75cf2e090f1377d0de85ef2
zero1993-03-19d2t02.flac:cff6f47707fb280c5fd4da5c663f6cc1
zero1993-03-19d2t03.flac:6497d6cbca58a72407073df6004d4b13
zero1993-03-19d2t04.flac:638a9dc1bcf14b5867c4589e7953f9f0
zero1993-03-19d2t05.flac:2c71d1f85b54fa5875977f4f853531f8
zero1993-03-19d2t06.flac:6d15e4f2cc008c7687a4defb4e1859d7
zero1993-03-19d2t07.flac:759d465046fffca13731f62108c11e0c
zero1993-03-19d2t08.flac:8725ba254435abd321bf34393058f5e7
zero1993-03-19d3t01.flac:f2fc4d75ed048bab3b0edfe1d0ddec3c
zero1993-03-19d3t02.flac:40a99a290f1ee4c2d4286bbc76515739

Comments
Add Comment
Other Sources (comments)
Neumann KM?54's (110 degree... (0)
Date User Comment