Browse Collections Artists Sources   Search Dates

Add Show    List Management    Help


Zero 08/07/96
Bohager's, Baltimore, MD
Comments Add Comment    Source Collectors    Add to Collection    Add to Want List    History
Source # 111319 Other Sources
Entered by Todd
Checksums ffp
Disc Counts 1 / 2
Media Size
Date Circulated
Date Added
02/11/2006
12/26/2010
Source Summary (Stage) AMS ST250 > Dat > CD > EAC > Flac 
Source Information - Download Text | Download Zip
ZERO
08-07-1996
Bohanger's, Baltimore, MD

Source:  
AMS ST250 (onstage) > Modified Sony D10 Pro II DAT >
Sony PCM R-500 (DAT) > HHB CDR850 (CD)
Recorded & Transfered by Ron Keyser

AUDIO CD > EAC > Flac


Set 1:

d1t01 Tangled Hangers
d1t02 Catalina
d1t03 Pits of Thunder
d1t04 Shape I'm In
d1t05 Mercury Blues

Set 2:

d1t06 Chance in a Million
d2t01 Use Me Up
d2t02 Running on Faith
d2t03 La Fiesta
d2t04 Junko Partner

Encore:  

d2t05 Gregg's Eggs >
d2t06 Eleanor Rigby >
d2t07 Papa was a Rolling Stone >
d2t08 Gregg's Eggs


Personnel:

Greg Anton - drums
Steve Kimock - guitars
Bobby Vega - bass
Martin Fierro - saxophone
Chip Roland - keyboards
Judge Murphy - vocals

shntool:


    length     expanded size    cdr  WAVE problems  fmt   ratio  filename
    19:50.10      209939564 B   ---   --   ---xx   flac  0.5706  zero1996-08-07d1t01.flac
    10:38.19      112587932 B   ---   --   ---xx   flac  0.6165  zero1996-08-07d1t02.flac
    15:00.42      158858828 B   ---   --   ---xx   flac  0.6130  zero1996-08-07d1t03.flac
     6:58.25       73794044 B   ---   --   ---xx   flac  0.6043  zero1996-08-07d1t04.flac
    10:32.08      111503660 B   ---   --   ---xx   flac  0.5758  zero1996-08-07d1t05.flac
     8:09.58       86396060 B   ---   --   ---xx   flac  0.6264  zero1996-08-07d1t06.flac
    15:36.67      165268028 B   ---   --   ---xx   flac  0.5912  zero1996-08-07d2t01.flac
     7:12.74       76378892 B   ---   --   ---xx   flac  0.5694  zero1996-08-07d2t02.flac
    14:08.45      149693084 B   ---   --   ---xx   flac  0.6334  zero1996-08-07d2t03.flac
    12:00.69      127170332 B   ---   --   ---xx   flac  0.5331  zero1996-08-07d2t04.flac
     3:50.64       40722572 B   ---   --   ---xx   flac  0.6253  zero1996-08-07d2t05.flac
     1:20.46       14220236 B   ---   --   ---xx   flac  0.5803  zero1996-08-07d2t06.flac
     6:31.28       69038300 B   ---   --   ---xx   flac  0.6406  zero1996-08-07d2t07.flac
     3:51.56       40880156 B   ---   --   ---xx   flac  0.4750  zero1996-08-07d2t08.flac
   135:43.11     1436451688 B                            0.5922  (14 files)


ffp:

zero1996-08-07d1t01.flac:d8dc37c812a23fcf79944688eafb2ee0
zero1996-08-07d1t02.flac:65e36b27a6d9d373468fb78356b22f55
zero1996-08-07d1t03.flac:c627828a4de5bdbb6690564d0d7d9d7a
zero1996-08-07d1t04.flac:46f952887e267313916806ba030ace67
zero1996-08-07d1t05.flac:ee68493ae17a18df68f08941f29351b4
zero1996-08-07d1t06.flac:7715fb363d1cca28eae62055ba52bd8a
zero1996-08-07d2t01.flac:69a5fbb6405032826471ff5f4cbd67f0
zero1996-08-07d2t02.flac:afe93ea0ef70353aaf6e9d1334e557d6
zero1996-08-07d2t03.flac:13e71b84890b215a22a5035aa653f145
zero1996-08-07d2t04.flac:bf3bc17016b97a556bd51728b0bfc4a8
zero1996-08-07d2t05.flac:3f21937653ee3d10f20616f94efff917
zero1996-08-07d2t06.flac:dcfc3cccfefa8512cd8f903b4c6ed755
zero1996-08-07d2t07.flac:1f2c606bcc7bd663e6bbe11ccc5d5fc4
zero1996-08-07d2t08.flac:d92a305e0b9bbfae1f8b99f8f4bcc9fd
Show Checksums
ffp
zero1996-08-07d1t01.flac:d8dc37c812a23fcf79944688eafb2ee0
zero1996-08-07d1t02.flac:65e36b27a6d9d373468fb78356b22f55
zero1996-08-07d1t03.flac:c627828a4de5bdbb6690564d0d7d9d7a
zero1996-08-07d1t04.flac:46f952887e267313916806ba030ace67
zero1996-08-07d1t05.flac:ee68493ae17a18df68f08941f29351b4
zero1996-08-07d1t06.flac:7715fb363d1cca28eae62055ba52bd8a
zero1996-08-07d2t01.flac:69a5fbb6405032826471ff5f4cbd67f0
zero1996-08-07d2t02.flac:afe93ea0ef70353aaf6e9d1334e557d6
zero1996-08-07d2t03.flac:13e71b84890b215a22a5035aa653f145
zero1996-08-07d2t04.flac:bf3bc17016b97a556bd51728b0bfc4a8
zero1996-08-07d2t05.flac:3f21937653ee3d10f20616f94efff917
zero1996-08-07d2t06.flac:dcfc3cccfefa8512cd8f903b4c6ed755
zero1996-08-07d2t07.flac:1f2c606bcc7bd663e6bbe11ccc5d5fc4
zero1996-08-07d2t08.flac:d92a305e0b9bbfae1f8b99f8f4bcc9fd

Comments
Add Comment
Other Sources (comments)
Source: AMS ST250 (onstage)... (0)
Date User Comment