Browse Collections Artists Sources   Search Dates

Add Show    List Management    Help


Grateful Dead 09/20/91
Boston Garden, Boston, MA
Comments Add Comment    Source Collectors    Add to Collection    Add to Want List    History
Source # 111333 Other Sources
Entered by Matt Vernon
Checksums flac-md5 , ffp
Disc Counts 2 / 3
Media Size
Date Circulated
Date Added
12/27/2010
12/27/2010
Source Summary flac16; matrix 50% sbd/50% aud; Sources: SBD > DAT > CDR > WAV > SHNv3 (shnid 5700) thanks to Andy 'Bear' G. for the seeds. DAE (eac) > tracking (cdwave) > bourndary checking (shntool) > SHNv3 (mkwact) > FTP via Chris L. and aud > Nakamichi 300 shotguns > Sony WM-D6 > 2 x Maxell XL II-S 90 (shnid 94608) taped by John Bleich from section U, row k, seat 7 transfer: mac > Nakamichi BX-125E > EMU 0202 > Wavelab > wav (24/96) > iZotope RX Advanced wav (16/44.1) > CD Wave > TLH > flac 16; Upgrade in circulation 
  Archive
Source Information - Download Text | Download Zip
Grateful Dead
Boston Garden
Boston, MA
09/20/1991

Matrix 50% sbd/50% aud


Sources:  

SBD > DAT > CDR > WAV > SHNv3 (shnid 5700)
thanks to Andy 'Bear' G. for the seeds.  DAE (eac) > tracking (cdwave) > bourndary checking (shntool) > SHNv3 (mkwact) > FTP via Chris L.


aud > Nakamichi 300 shotguns > Sony WM-D6 > 2 x Maxell XL II-S 90 (shnid 94608)
taped by John Bleich from section U, row k, seat 7
transfer: mac > Nakamichi BX-125E > EMU 0202 > Wavelab > wav (24/96) > iZotope RX Advanced
               wav (16/44.1) > CD Wave > TLH > flac 16



Disc 1
set I


01   crowd/tuning
02   Touch Of Grey
03   Little Red Rooster
04   crowd/tuning
05   Jack-A-Roe
06   crowd/tuning
07   Black-Throated Wind
08   crowd/tuning
09   Stagger Lee
10   When I Paint My Masterpiece
11   Bird Song


Disc 2
set II

01   crowd/tuning
02   Help On The Way >
03   Slipknot! >
04   Fire On The Mountain
05   Estimated Prophet >
06   Truckin' > Jam >
07   Drums >


Disc 3
set II cont'd

01 Space >
02 All Along The Watchtower >
03 Morning Dew

encore

04 Turn On Your Love Light


Notes:

- The sbd has repeated sections in "Bird Song" and "Drums", which have been removed.
- The aud has a tape flip in "Drums" which was previously crossfaded.  This has now been patched
   with the sbd.
- Seamless transition between discs 2 and 3


Thanks to the tapers for being there.


editing and matrix
SIRMick
December 2010


shntool output:

    length     expanded size    cdr  WAVE problems  fmt   ratio  filename
     2:50.66       30143276 B   ---   --   ---xx   flac  0.5033  gd1991-09-20d1t01.flac
     6:54.53       73154300 B   ---   --   ---xx   flac  0.5361  gd1991-09-20d1t02.flac
     8:38.02       91379948 B   ---   --   ---xx   flac  0.5290  gd1991-09-20d1t03.flac
     1:33.46       16513436 B   ---   --   ---xx   flac  0.4478  gd1991-09-20d1t04.flac
     4:26.03       46929500 B   ---   --   ---xx   flac  0.5472  gd1991-09-20d1t05.flac
     1:20.05       14123804 B   ---   --   ---xx   flac  0.4466  gd1991-09-20d1t06.flac
     6:18.63       66827420 B   ---   --   ---xx   flac  0.5497  gd1991-09-20d1t07.flac
     1:44.55       18475004 B   ---   --   ---xx   flac  0.4405  gd1991-09-20d1t08.flac
     7:21.71       77959436 B   ---   --   ---xx   flac  0.5548  gd1991-09-20d1t09.flac
     5:38.51       59743196 B   ---   --   ---xx   flac  0.5326  gd1991-09-20d1t10.flac
    15:20.72      162457388 B   ---   --   ---xx   flac  0.5468  gd1991-09-20d1t11.flac
     1:53.34       20013212 B   ---   --   ---xx   flac  0.4491  gd1991-09-20d2t01.flac
     4:01.04       42521852 B   ---   --   ---xx   flac  0.5658  gd1991-09-20d2t02.flac
     6:23.13       67591820 B   ---   --   ---xx   flac  0.5616  gd1991-09-20d2t03.flac
    13:03.06      138135356 B   ---   --   ---xx   flac  0.5575  gd1991-09-20d2t04.flac
    12:15.43      129755180 B   ---   --   ---xx   flac  0.5524  gd1991-09-20d2t05.flac
    14:46.65      156443324 B   ---   --   ---xx   flac  0.5715  gd1991-09-20d2t06.flac
     7:03.65       74770124 B   ---   --   ---xx   flac  0.5100  gd1991-09-20d2t07.flac
    14:10.54      150067052 B   ---   --   ---xx   flac  0.3955  gd1991-09-20d3t01.flac
     7:12.39       76296572 B   ---   --   ---xx   flac  0.5002  gd1991-09-20d3t02.flac
    11:53.47      125883788 B   ---   --   ---xx   flac  0.4601  gd1991-09-20d3t03.flac
     7:15.29       76802252 B   ---   --   ---xx   flac  0.5209  gd1991-09-20d3t04.flac
   162:07.61     1715987240 B                            0.5207  (22 files)
Show Checksums
flac-md5
58ba96c9a7df5125f07189be8e7ae602 *gd1991-09-20d1t01.flac
56c772b4e7c8a013fac5c9f4c37bc2e5 *gd1991-09-20d1t02.flac
2820f828413f501307733d2628e05266 *gd1991-09-20d1t03.flac
1f9806d6269cf4883122943b153a9cf9 *gd1991-09-20d1t04.flac
7d68d3168724c2407b700c31e60c7e1c *gd1991-09-20d1t05.flac
48c03bb3409a5dc158e8d716aca2e449 *gd1991-09-20d1t06.flac
3dc71d723f70a47e300232c72473143e *gd1991-09-20d1t07.flac
1d8eecc445dda0a8bb7fff68b840776c *gd1991-09-20d1t08.flac
9868d9e26a7b4cd5c80f63b82dd5d08d *gd1991-09-20d1t09.flac
dfda2e5fd88729caceb94854c9cf1dc3 *gd1991-09-20d1t10.flac
6520ca9aa1d2fc381f303af8b59fbc7a *gd1991-09-20d1t11.flac
b1b94a28173fab8a43a28fdd62068f5a *gd1991-09-20d2t01.flac
4d045e5ba26467eb4cee6b7c30cbee91 *gd1991-09-20d2t02.flac
0215adacf6fd2a84dd701c1d72d5c39e *gd1991-09-20d2t03.flac
34c23b7bcaded4e16711473748e014ab *gd1991-09-20d2t04.flac
b99a3af0a811e98ecf504cdf7d430059 *gd1991-09-20d2t05.flac
e98921e6f0ae0a423c54f340056bf530 *gd1991-09-20d2t06.flac
98cc2ebfb3435069d7b2705d5a1b1baa *gd1991-09-20d2t07.flac
f9f8d63b4704b0cc2b522d2975ec552c *gd1991-09-20d3t01.flac
21d74181b0f699d8383cf5f099ee76f5 *gd1991-09-20d3t02.flac
3f27875271b0e0f1a832b0205dbe6bfd *gd1991-09-20d3t03.flac
5f9cd7e56b92ce018bb8cc722117eccb *gd1991-09-20d3t04.flac
ffp
gd1991-09-20d1t01.flac:174dc35c27a8281d03ecb03fa041bca1
gd1991-09-20d1t02.flac:d0d793d458820af1bdee2adf4ed21a1b
gd1991-09-20d1t03.flac:31cb748f065dc555512410b1180e6b05
gd1991-09-20d1t04.flac:520451314a962ad344de3f3e02dd0738
gd1991-09-20d1t05.flac:8c89b1b777612c09aae066f88cf027c7
gd1991-09-20d1t06.flac:55fbe468b7caff7f49eba6c9dd8c6ce3
gd1991-09-20d1t07.flac:953c39d0ace80fc7d5972864877ac2b1
gd1991-09-20d1t08.flac:209c725f714a3ad624985cbf629c8aaa
gd1991-09-20d1t09.flac:286f4f67a70adb9b141a317a586a01ef
gd1991-09-20d1t10.flac:82d10afc7f2878f5ba46fabe8f3da1e5
gd1991-09-20d1t11.flac:7a0a28894a1b3b4cfc1bda8bbb6407e1
gd1991-09-20d2t01.flac:36e044b0a01b8490d15be067d6948047
gd1991-09-20d2t02.flac:ef0214a446c5ae9f9ca279fb522423bc
gd1991-09-20d2t03.flac:ee63ea28e7fac1df3061b618d4fc9b85
gd1991-09-20d2t04.flac:26019e77719d00082802b54a5fbf1768
gd1991-09-20d2t05.flac:7dfe667dafb77b10365a1a4af4a1edd9
gd1991-09-20d2t06.flac:c541e3f1cf305bffb2a8e0f63eaf2689
gd1991-09-20d2t07.flac:5f66047dd0aa24fa39531d9d30b899ae
gd1991-09-20d3t01.flac:c097acfc43962afe295aacd8373c6dd6
gd1991-09-20d3t02.flac:d143af37319359d7979300a191a9cb70
gd1991-09-20d3t03.flac:9ef398a4083824f72ab3dcd3351f5937
gd1991-09-20d3t04.flac:e6db1338186fc8c48b82ac2478c08f1b

Comments
Add Comment
Other Sources (comments)
SBD > DAT > CDR > WAV >... (0) Recorded with nakamichi 300... (0) Unknown SBD source. Hosted... (1) SBD > DAT > CDR > WAV > SHN... (0) flac16; Source: aud... (1) flac16; Lineage: Set... (0) flac16; Matrix 50%... (1) flac24; Master... (0) flac16; Master... (0) flac16; 2 Source... (0) flac16/48kHz; DSBD... (0) flac16/48kHz;... (0)
Date User Comment