Browse Collections Artists Sources   Search Dates

Add Show    List Management    Help


Grateful Dead 10/21/83
The Centrum, Worcester, MA
Comments Add Comment    Source Collectors    Add to Collection    Add to Want List    History
Source # 111507 Other Sources
Entered by Matt Vernon
Checksums ffp , flac-md5
Disc Counts 0 / 0
Media Size
Date Circulated
Date Added
01/07/1983
01/06/2011
Source Summary flac24; AUD: 2 Beyer M88's plus 1 Nakamichi CM300/CP1 cardioid blend mic > Nakamichi 550 > Maxell XLII-S 90's, floor near the SBD. Taped by Tim Friend. Transfer: MAC > Nakamichi CR5A > Edirol FA-66 > Wavelab 2448 > CD-Wave > TLH > FLAC 2448 Tagged. Transfer by Andrew F. 01/2011 
  Archive
Source Information - Download Text | Download Zip
GRATEFUL DEAD
Centrum
Worcester MA
10-21-1983

24bit/48kHz file-set

s1t01 crowd & tuning
s1t02 The Music Never Stopped
s1t03 Loser
s1t04 C.C. Rider
s1t05 Cumberland Blues
s1t06 Cassidy
s1t07 Ramble on Rose
s1t08 Brother Esau
s1t09 Big Railroad Blues
s1t10 The Promised Land

s2t01 Scarlet Begonias >
s2t02 Fire on the Mountain
s2t03 Uncle John's Band >
s2t04 Playin' in the Band >
s2t05 Drums >
s2t06 Space >
s2t07 Truckin' >
s2t08 Wharf Rat >
s2t09 I Need a Mircale >
s2t10 Touch of Grey
s2t11 Encore: Johnny B. Goode

AUD: 2 Beyer M88's plus 1 Nakamichi CM300/CP1 cardioid blend
mic > Nakamichi 550 > Maxell XLII-S 90's, floor near the SBD.
Taped by Tim Friend.

Transfer: MAC > Nakamichi CR5A > Edirol FA-66 > Wavelab 2448 >
CD-Wave > TLH > FLAC 2448 Tagged. Transfer by Andrew F. 01/2011

Patches from ID-111059, PITB 7:09 > 7:31, & Drums 0:55 > 8:51.

    length     expanded size    cdr  WAVE problems  fmt   ratio  filename
     1:00.653      17468204 B   cxx   --   ---xx   flac  0.6348  gd1983-10-21s1t01.flac
    10:22.253     179209004 B   cxx   --   ---xx   flac  0.6698  gd1983-10-21s1t02.flac
     7:25.827     128398124 B   cxx   --   ---xx   flac  0.6698  gd1983-10-21s1t03.flac
     9:03.360     156487724 B   cxx   --   ---xx   flac  0.6768  gd1983-10-21s1t04.flac
     8:48.867     152313602 B   cxx   --   ---xx   flac  0.6753  gd1983-10-21s1t05.flac
     6:19.653     109340204 B   cxx   --   ---xx   flac  0.6861  gd1983-10-21s1t06.flac
     8:04.520     139541804 B   cxx   --   ---xx   flac  0.6766  gd1983-10-21s1t07.flac
     5:17.333      91392044 B   cxx   --   ---xx   flac  0.6772  gd1983-10-21s1t08.flac
     7:47.293     134580524 B   cxx   --   ---xx   flac  0.6978  gd1983-10-21s1t09.flac
     4:50.442      83647286 B   cxx   --   ---xx   flac  0.6960  gd1983-10-21s1t10.flac
    13:25.987     232124204 B   cxx   --   ---xx   flac  0.6935  gd1983-10-21s2t01.flac
    17:20.893     299777174 B   cxx   --   ---xx   flac  0.7055  gd1983-10-21s2t02.flac
     8:28.493     146446124 B   cxx   --   ---xx   flac  0.7183  gd1983-10-21s2t03.flac
    11:34.973     200152364 B   cxx   --   ---xx   flac  0.6969  gd1983-10-21s2t04.flac
     8:51.893     153185324 B   cxx   --   ---xx   flac  0.6621  gd1983-10-21s2t05.flac
    14:13.724     245872640 B   cxx   --   ---xx   flac  0.6296  gd1983-10-21s2t06.flac
     9:01.627     155988524 B   cxx   --   ---xx   flac  0.7137  gd1983-10-21s2t07.flac
    10:02.093     173402924 B   cxx   --   ---xx   flac  0.6800  gd1983-10-21s2t08.flac
     3:39.200      63129644 B   cxx   --   ---xx   flac  0.7063  gd1983-10-21s2t09.flac
     6:26.973     111448364 B   cxx   --   ---xx   flac  0.7176  gd1983-10-21s2t10.flac
     4:25.493      76462130 B   cxx   --   ---xx   flac  0.7079  gd1983-10-21s2t11.flac
   176:31.552    3050367936 B                            0.6854  (21 files)

No errors occured.
Show Checksums
ffp
gd1983-10-21s1t01.flac:f5bac5a81f8c2f61f47b153afa08c942
gd1983-10-21s1t02.flac:373851367979dd40b4c24535919d6b07
gd1983-10-21s1t03.flac:e29ee8b1412d1428367d9e57867fdf70
gd1983-10-21s1t04.flac:c2f10c222ec383eff2532300a69ddffe
gd1983-10-21s1t05.flac:e667aaba3d13d757ea6705bd42114c56
gd1983-10-21s1t06.flac:a8b9dabd4f74da389608cc108c517268
gd1983-10-21s1t07.flac:7c5a21c489e5a9cf6ee81c84e6c7fa73
gd1983-10-21s1t08.flac:40f8dec6b91b01b30ca106b7c87345cb
gd1983-10-21s1t09.flac:d25c80a93a89d542d155c024b8407d52
gd1983-10-21s1t10.flac:26f0ba4ee1bdfc9bf09991460799bad7
gd1983-10-21s2t01.flac:e79bc7d34d9e74900e7039e72458d1a6
gd1983-10-21s2t02.flac:d29238193a7960993d938e9fd1330d88
gd1983-10-21s2t03.flac:a91ca6e2da86264ca66d1e05cfa312e5
gd1983-10-21s2t04.flac:022845e1a04be0600e0542d095c51d6d
gd1983-10-21s2t05.flac:f41c98f998e49f8b059d675314341725
gd1983-10-21s2t06.flac:27266549216c60133bacef9fc1629dac
gd1983-10-21s2t07.flac:45d32520524205d481de9007c4232254
gd1983-10-21s2t08.flac:23ccd71c98b603de15aa8b8e59478090
gd1983-10-21s2t09.flac:99c26e4be823ee86997d88673541486d
gd1983-10-21s2t10.flac:05f6091e2ad4bcfaa7c3c1609b72262d
gd1983-10-21s2t11.flac:ad76cfb10130ce08dcbff165b8bb8051
flac-md5
d449a415c0ff33d81f1368d1da6f52ff *gd1983-10-21s1t01.flac
2c20d93eed7637ce51930ff8322e7c98 *gd1983-10-21s1t02.flac
d95109825767f20c326dbed6ae9ab939 *gd1983-10-21s1t03.flac
6a0b706ad045280064749dd2de5cba24 *gd1983-10-21s1t04.flac
594d98ed5459b420e0c0868a3046df42 *gd1983-10-21s1t05.flac
4f5216f9356744b7d20fdc6806fbc09a *gd1983-10-21s1t06.flac
83466232cafc8cf7b786f4a479f7e5a6 *gd1983-10-21s1t07.flac
6cfcf9c106e3f152924b6a54de714839 *gd1983-10-21s1t08.flac
7ed01342d3dc8dbe26a3038301ef1c33 *gd1983-10-21s1t09.flac
d3d8f2df0762fc0f33985ac99097e585 *gd1983-10-21s1t10.flac
9424c23694b0dd60604171e40815c9c3 *gd1983-10-21s2t01.flac
c704e80826c18c2b879bf124e1c717a8 *gd1983-10-21s2t02.flac
559801516d052b381bb4d309fb87e241 *gd1983-10-21s2t03.flac
c2a5859330dc7cbf70139bea16b43e4f *gd1983-10-21s2t04.flac
8cdb7197721ae18ab572b1f4e82d1234 *gd1983-10-21s2t05.flac
f27a8cdb366a37a3df87048e556cfcf6 *gd1983-10-21s2t06.flac
3bcbc8b52af3ff9768c3c7a3119a3e66 *gd1983-10-21s2t07.flac
be7c38898d6e732c503219c76c6b3464 *gd1983-10-21s2t08.flac
89fa27a6fd45fd37b761cefbbc735549 *gd1983-10-21s2t09.flac
c01187ea4a13ebdebb9e70291cdfa206 *gd1983-10-21s2t10.flac
eb19728193c8d75416578c50b4026d46 *gd1983-10-21s2t11.flac

Comments
Add Comment
Other Sources (comments)
FOB (2nd row, dead center)... (5) Master Soundboard PCM >... (0) SBD > PCM > Dat X 3 > CDR;... (0) Jay Ashley (Bertha)... (0) FOB Sony TCD5M with 2 Beyer... (1) SBD>>PCM>>Dat>>CDR>>SHN>>DA... (0) flac16; AKG D224E >... (1) flac16; Nakamichi... (0) flac16; Lineage:... (0) flac16; Matrix by... (0) flac24; Nakamichi... (0) flac16; Source: 2... (0) flac24; lineage:... (0) flac16; Master... (0) flac24; Master... (0) flac24; Recording... (0) flac16; Recording... (0) flac16; Jeff... (0)
Date User Comment