Browse Collections Artists Sources   Search Dates

Add Show    List Management    Help


Jerry Garcia Band 11/06/81
Capitol Theater, Passaic, NJ
Comments Add Comment    Source Collectors    Add to Collection    Add to Want List    History
Source # 111581 Other Sources
Entered by Joe Jupille
Checksums all
Disc Counts 2 / 3
Media Size
Date Circulated
Date Added
01/12/2011
01/12/2011
Source Summary flac1644; early and late shows; Recorded by Gordon Sharpless, Walkman > MAC > DAT > CDR. Transfer: CDRs > EAC > WavMerge > Wavelab > CD-Wave > TLH > FLAC 1644 Tagged. 
Source Information - Download Text | Download Zip
JERRY GARCIA BAND
Capitol Theater
Passaic NJ
11-06-1981

Disc One - Early Show

01 Jon Scher Intro
02 The Way You Do the Things You Do
03 They Love Eachother
04 Simple Twist of Fate
05 That's What Love Will Make You Do
06 Mississippi Moon
07 I Second that Emotion
08 Deal

Disc Two - Late Show Set One

01 I'll Take a Melody
02 How Sweet It Is
03 Mission in the Rain
04 Love in the Afternoon
05 Mystery Train

Disc Three - Late Show Set Two

01 The Harder They Come
02 Valerie
03 The Night They Drove Old Dixie Down
04 Tangled Up in Blue

AUD: Walkman > MAC > DAT > CDR. Recorded by Gordon Sharpless.

Transfer: CDRs > EAC > WavMerge > Wavelab > CD-Wave > TLH >
FLAC 1644 Tagged, January 2011.

This is pretty much a lo-fi recording, but does provide the
entire concert in one file-set. The deck was turned on & off
between songs, resulting in very abrupt transitions, a few
songs clipped at beginning. Tape-flip at the start of TUIB.

    length     expanded size    cdr  WAVE problems  fmt   ratio  filename
     0:34.19        6042332 B   ---   --   ---xx   flac  0.5683  jgb1981-11-06d1t01.flac
     6:58.12       73763468 B   ---   --   ---xx   flac  0.5867  jgb1981-11-06d1t02.flac
     6:54.29       73097852 B   ---   --   ---xx   flac  0.5509  jgb1981-11-06d1t03.flac
    15:18.69      162097532 B   ---   --   ---xx   flac  0.5406  jgb1981-11-06d1t04.flac
     9:13.36       97633916 B   ---   --   ---xx   flac  0.5913  jgb1981-11-06d1t05.flac
    10:35.11      112039916 B   ---   --   ---xx   flac  0.5479  jgb1981-11-06d1t06.flac
     9:37.23      101836940 B   ---   --   ---xx   flac  0.5903  jgb1981-11-06d1t07.flac
     7:32.34       79812812 B   ---   --   ---xx   flac  0.6084  jgb1981-11-06d1t08.flac
    13:48.30      146129804 B   ---   --   ---xx   flac  0.5666  jgb1981-11-06d2t01.flac
     7:37.49       80730092 B   ---   --   ---xx   flac  0.5807  jgb1981-11-06d2t02.flac
    13:36.56      144074156 B   ---   --   ---xx   flac  0.5494  jgb1981-11-06d2t03.flac
     8:21.27       88439948 B   ---   --   ---xx   flac  0.5664  jgb1981-11-06d2t04.flac
     8:36.12       91050668 B   ---   --   ---xx   flac  0.5991  jgb1981-11-06d2t05.flac
    11:22.13      120335420 B   ---   --   ---xx   flac  0.5732  jgb1981-11-06d3t01.flac
     7:00.48       74200940 B   ---   --   ---xx   flac  0.5649  jgb1981-11-06d3t02.flac
     8:37.66       91354076 B   ---   --   ---xx   flac  0.5660  jgb1981-11-06d3t03.flac
    10:07.12      107103068 B   ---   --   ---xx   flac  0.5866  jgb1981-11-06d3t04.flac
   155:52.21     1649742940 B                            0.5706  (17 files)

No errors occured.
Show Checksums
all
jgb1981-11-06d1t01.flac:864969874401e973caa67b0950e79995
jgb1981-11-06d1t02.flac:2f939c2a79b9b95ddcb8f0e0008d108d
jgb1981-11-06d1t03.flac:d3584bd0f924b8376a0f36aed2c20ab2
jgb1981-11-06d1t04.flac:65bb2514d0b8ab5ab20c8e32896c4197
jgb1981-11-06d1t05.flac:acf1a478dfca554a2be60b46d66eb682
jgb1981-11-06d1t06.flac:3bc237b0c8e24d2a98ef2d2eef246d54
jgb1981-11-06d1t07.flac:d08baa0e3fe3bf94bcdd556c41d6f3ec
jgb1981-11-06d1t08.flac:bdbc8683c543a5039fbb5723ecdb3dd9
jgb1981-11-06d2t01.flac:6dc4645f03fcbe932511f12c897ea199
jgb1981-11-06d2t02.flac:b18c6c8af7169a6b0eeb4e8bc85671a8
jgb1981-11-06d2t03.flac:3917b58fd8d67072fcbf684b7f0d9af1
jgb1981-11-06d2t04.flac:f5f923195284d27d8ba13c1cd02ecc26
jgb1981-11-06d2t05.flac:15b04ace52a625db9aa4fa6caf17c96b
jgb1981-11-06d3t01.flac:0c41b3127b57dea5c6bda834272b3059
jgb1981-11-06d3t02.flac:8cf89a20827b3d6e7877150a45fbd52e
jgb1981-11-06d3t03.flac:190da36f49c4ca4763cf4bbb5b2d93a2
jgb1981-11-06d3t04.flac:afc9b7947a73a751eb7bb8b0e9d313c1

Comments
Add Comment
Date User Comment
01/13/2011 nfagdtrfb Updated info from the taper: Shure handheld mic > Aiwa Walkman. Early show, from aprx fifth row, right side. Late show, from aprx 20th-30th row center. THANKS Gordon!