Browse Collections Artists Sources   Search Dates

Add Show    List Management    Help


Jerry Garcia Band 11/24/91
Target Center, Minneapolis, MN
Comments Add Comment    Source Collectors    Add to Collection    Add to Want List    History
Source # 112042 Other Sources
Entered by Joe Jupille
Checksums all
Disc Counts 0 / 0
Media Size
Date Circulated
Date Added
02/21/2011
02/21/2011
Source Summary flac2448; AUD (unknown equipment) > MAC > Cassette 1st gen; Transfer: Maxell XLIIS > Nakamichi CR5A > Edirol FA-66 > Wavelab > CD-Wave > TLH > FLAC 2448 Tagged. 
Source Information - Download Text | Download Zip
JERRY GARCIA BAND
Target Center
Minneapolis MN
11-24-1991

24bit/48kHz file-set

s1t01 How Sweet It Is
s1t02 Stop That Train
s1t03 C'est La Vie
s1t04 Run for the Roses
s1t05 And It Stoned Me
s1t06 Lay Down Sally
s1t07 My Sisters & Brothers
s1t08 Deal

s2t01 The Way You Do the Things You Do
s2t02 Waiting for a Miracle
s2t03 Ain't No Bread in the Breadbox
s2t04 Shining Star
s2t05 Don't Let Go
s2t06 Midnight Moonlight
s2t07 Encore: What a Wonderful World

Source: AUD (unknown equipment) > MAC > Cassette 1st gen.

Transfer: Maxell XLIIS > Nakamichi CR5A > Edirol FA-66 >
Wavelab > CD-Wave > TLH > FLAC 2448 Tagged.

Notes: This does not match ID-12025. With thanks to Ted
Carpenter for these tapes. Tight edits between songs,
cross-fades added. Lineage not exactly certain, however
this does sound wonderful... Enjoy!


    length     expanded size    cdr  WAVE problems  fmt   ratio  filename
     7:13.200     124761644 B   cxx   --   ---xx   flac  0.7352  jgb1991-11-24s1t01.flac
     7:56.240     137157164 B   cxx   --   ---xx   flac  0.7230  jgb1991-11-24s1t02.flac
     7:09.840     123793964 B   cxx   --   ---xx   flac  0.7350  jgb1991-11-24s1t03.flac
     5:49.200     100569644 B   cxx   --   ---xx   flac  0.7362  jgb1991-11-24s1t04.flac
     9:26.773     163230764 B   cxx   --   ---xx   flac  0.7384  jgb1991-11-24s1t05.flac
     7:56.867     137337644 B   cxx   --   ---xx   flac  0.7388  jgb1991-11-24s1t06.flac
     3:49.840      66193964 B   cxx   --   ---xx   flac  0.7128  jgb1991-11-24s1t07.flac
     8:04.595     139563314 B   cxx   --   ---xx   flac  0.7309  jgb1991-11-24s1t08.flac
    11:07.173     192145964 B   cxx   --   ---xx   flac  0.7329  jgb1991-11-24s2t01.flac
     5:50.480     100938284 B   cxx   --   ---xx   flac  0.7437  jgb1991-11-24s2t02.flac
     9:54.067     171091244 B   cxx   --   ---xx   flac  0.7488  jgb1991-11-24s2t03.flac
    12:00.173     207409964 B   cxx   --   ---xx   flac  0.7262  jgb1991-11-24s2t04.flac
    14:12.827     245614124 B   cxx   --   ---xx   flac  0.7420  jgb1991-11-24s2t05.flac
     6:01.413     104087084 B   cxx   --   ---xx   flac  0.7590  jgb1991-11-24s2t06.flac
     7:53.876     136476344 B   cxx   --   ---xx   flac  0.7292  jgb1991-11-24s2t07.flac
   124:26.564    2150371110 B                            0.7359  (15 files)

No errors occured.
Show Checksums
all
jgb1991-11-24s1t01.flac:5cd883fdb921a49fac993a2385cb0516
jgb1991-11-24s1t02.flac:f6bb1eeec954eb50d8d55a7fad5ed74f
jgb1991-11-24s1t03.flac:926a93cc28c20f84cb5b0fdb8085a932
jgb1991-11-24s1t04.flac:80a5210f0a118daa9790d3b7acce6ac4
jgb1991-11-24s1t05.flac:8b9a9aab83e6ef09895c58f76410991c
jgb1991-11-24s1t06.flac:ae0073d9bc5610beb69e408def5fff3d
jgb1991-11-24s1t07.flac:5cba8274520a86b6eb06325367f27c9b
jgb1991-11-24s1t08.flac:5b369b980c0bae5ac3076af44b6cf138
jgb1991-11-24s2t01.flac:32ea1a76c2b33c8053c5835fa3f2b851
jgb1991-11-24s2t02.flac:86a6ed20bbbcbc2fd9b0fee26a73d3e0
jgb1991-11-24s2t03.flac:2a4885001b21f534ecd162ec36dade98
jgb1991-11-24s2t04.flac:463783b37b573e7a0d28b8eb65d4137b
jgb1991-11-24s2t05.flac:21f9b3b06c62efeacebe8e5f89579371
jgb1991-11-24s2t06.flac:8c06389aa48648bc81cfafac87022987
jgb1991-11-24s2t07.flac:4dd99794eb9a7c61bec0c3f85fcd7e99

Comments
Add Comment
Other Sources (comments)
flac1644; AUD (unknown... (0)
Date User Comment