Browse Collections Artists Sources   Search Dates

Add Show    List Management    Help


Jerry Garcia Band 11/24/91
Target Center, Minneapolis, MN
Comments Add Comment    Source Collectors    Add to Collection    Add to Want List    History
Source # 112043 Other Sources
Entered by Joe Jupille
Checksums all
Disc Counts 2 / 2
Media Size
Date Circulated
Date Added
02/21/2011
02/21/2011
Source Summary flac1644; AUD (unknown equipment) > MAC > Cassette 1st gen; Transfer: Maxell XLIIS > Nakamichi CR5A > Edirol FA-66 > Wavelab > R8Brain > CD-Wave > TLH > FLAC 1644 Tagged. 
Source Information - Download Text | Download Zip
JERRY GARCIA BAND
Target Center
Minneapolis MN
11-24-1991

16bit/44.1kHz file-set

s1t01 How Sweet It Is
s1t02 Stop That Train
s1t03 C'est La Vie
s1t04 Run for the Roses
s1t05 And It Stoned Me
s1t06 Lay Down Sally
s1t07 My Sisters & Brothers
s1t08 Deal

s2t01 The Way You Do the Things You Do
s2t02 Waiting for a Miracle
s2t03 Ain't No Bread in the Breadbox
s2t04 Shining Star
s2t05 Don't Let Go
s2t06 Midnight Moonlight
s2t07 Encore: What a Wonderful World

Source: AUD (unknown equipment) > MAC > Cassette 1st gen.

Transfer: Maxell XLIIS > Nakamichi CR5A > Edirol FA-66 >
Wavelab > R8Brain > CD-Wave > TLH > FLAC 1644 Tagged.

Notes: This does not match ID-12025. With thanks to Ted
Carpenter for these tapes. Tight edits between songs,
cross-fades added. Lineage not exactly certain, however
this does sound wonderful... Enjoy!

    length     expanded size    cdr  WAVE problems  fmt   ratio  filename
     7:13.15       76416524 B   ---   --   ---xx   flac  0.6165  jgb1991-11-24s1t01.flac
     7:56.18       84008780 B   ---   --   ---xx   flac  0.5962  jgb1991-11-24s1t02.flac
     7:09.63       75823820 B   ---   --   ---xx   flac  0.6159  jgb1991-11-24s1t03.flac
     5:49.16       61601276 B   ---   --   ---xx   flac  0.6180  jgb1991-11-24s1t04.flac
     9:26.57       99976508 B   ---   --   ---xx   flac  0.6216  jgb1991-11-24s1t05.flac
     7:56.65       84119324 B   ---   --   ---xx   flac  0.6223  jgb1991-11-24s1t06.flac
     3:49.63       40543820 B   ---   --   ---xx   flac  0.5821  jgb1991-11-24s1t07.flac
     8:04.44       85481132 B   ---   --   ---xx   flac  0.6121  jgb1991-11-24s1t08.flac
    11:07.13      117689420 B   ---   --   ---xx   flac  0.6149  jgb1991-11-24s2t01.flac
     5:50.36       61824716 B   ---   --   ---xx   flac  0.6316  jgb1991-11-24s2t02.flac
     9:54.06      104795756 B   ---   --   ---xx   flac  0.6398  jgb1991-11-24s2t03.flac
    12:00.12      127036268 B   ---   --   ---xx   flac  0.6040  jgb1991-11-24s2t04.flac
    14:12.62      150438668 B   ---   --   ---xx   flac  0.6299  jgb1991-11-24s2t05.flac
     6:01.31       63753356 B   ---   --   ---xx   flac  0.6572  jgb1991-11-24s2t06.flac
     7:53.67       83594828 B   ---   --   ---xx   flac  0.6100  jgb1991-11-24s2t07.flac
   124:26.43     1317104196 B                            0.6190  (15 files)

No errors occured.
Show Checksums
all
jgb1991-11-24s1t01.flac:1a1deb6fc3eff776b40004772ba8fb63
jgb1991-11-24s1t02.flac:ff536a14971e6de91cd23de7776feb84
jgb1991-11-24s1t03.flac:b5ec60da71842f0e481b260b7af80265
jgb1991-11-24s1t04.flac:9eeae09dbb588c302c6f5652f72bc7a0
jgb1991-11-24s1t05.flac:ec2a15165c0fdf53239327acd5d84ee6
jgb1991-11-24s1t06.flac:f7484dea1d7690fcfbb1623b236b5cdf
jgb1991-11-24s1t07.flac:786887e2dfe6f89d597d8dd252fa6523
jgb1991-11-24s1t08.flac:ca6a3acb30d99d901921c4d7b9f56cd5
jgb1991-11-24s2t01.flac:f228bb8b8dc3379357fe1822ce59aa20
jgb1991-11-24s2t02.flac:32e3fa3762f5998349eff407b3026be2
jgb1991-11-24s2t03.flac:6f83b447817fdb2f6241186ee6270e58
jgb1991-11-24s2t04.flac:7aff68960bf999c76375e04e0e4f9c38
jgb1991-11-24s2t05.flac:6846464b8f701846b8f8b0f03005f1c6
jgb1991-11-24s2t06.flac:f355510a4bfc9f1dd9adb9ff9491901b
jgb1991-11-24s2t07.flac:f4b6b68ec11b75867e93d063fcf6054a

Comments
Add Comment
Other Sources (comments)
flac2448; AUD (unknown... (0)
Date User Comment