Browse Collections Artists Sources   Search Dates

Add Show    List Management    Help


Grateful Dead 06/21/80
West High Auditorium, Anchorage, AK
Comments Add Comment    Source Collectors    Add to Collection    Add to Want List    History
Source # 112150 Other Sources
Entered by Matt Vernon
Checksums flac-md5 , ffp
Disc Counts 2 / 3
Media Size
Date Circulated
Date Added
02/27/2011
02/27/2011
Source Summary flac16; Matrix by Hunter Seamons using Final Cut Pro (FLAC > AIFF > Final Cut > AIFF CD tracking via Audacity > FLAC16 via xACT) 
  Archive
Source Information - Download Text | Download Zip
Grateful Dead
West High Auditorium
Anchorage, AK
June 21, 1980

Jerry Garcia - Lead Guitar, Vocals
Mickey Hart - Drums
Bill Kreutzmann - Drums
Phil Lesh - Electric Bass, Vocals
Brent Mydland - Keyboards, Vocals
Bob Weir - Rhythm Guitar, Vocals




*Matrix*



-----------------------------------------------------------------
SBD (shnid=27448):

Lineage:
Soundboard->Cassette Master->Sonic Solutions (20bit)->
Sony SBM2->Master CD->EAC->FLAC

Re-track, FLAC, and upload by Joe Samaritano
12/18/2004

Notes:
- Cassette Masters supplied by Richard Hale
- Transferred and patched by David Gans
- Aud patches: First few notes of Candyman; middle of Loser;
  first half of Big RxR Blues; half a minute or so of Space
- Per Richard Hale, this is the best circulating source

-----------------------------------------------------------------
AUD (shnid=89214):

Recorded by Mark Severson; 2 Nak 700s with bass eq mounted on pole> Sony TC-D5 (2 Maxell UD XL-IIs)
Recorded from Row M, Seat 2, Right Center Floor
Transfer and FLAC encoding by David Minches:
Master played back on Nak Dragon> Grace Lunatec V3 (24/96)> Digital Audio Labs Card Deluxe> Adobe Audition 2.0> (dither/downsample)> FLAC encoding

[12/24/07]

-----------------------------------------------------------------
Thank you to David Gans for the SBD transfer,
to Mark Severson for recording the show,
and to David Minches for the AUD transfer.

Matrix by Hunter Seamons using Final Cut Pro (FLAC > AIFF > Final Cut > AIFF CD tracking via Audacity > FLAC16 via xACT)
February 26, 2011



Set I
-----
d1t01 - Tuning
d1t02 - Sugaree ->
d1t03 - Minglewood Blues
d1t04 - Candyman
d1t05 - Me And My Uncle ->
d1t06 - Big River
d1t07 - Loser
d1t08 - Lazy Lightning ->
d1t09 - Supplication
d1t10 - Far From Me
d1t11 - Ramble On Rose
d2t01 - Feel Like A Stranger

Set II
-----
d2t02 - Big Railroad Blues
d2t03 - Samson And Delilah
d2t04 - Terrapin Station ->
d2t05 - Playing In The Band ->
d2t06 - Drums ->
d3t01 - Space ->
d3t02 - Truckin' ->
d3t03 - Stella Blue ->
d3t04 - Sugar Magnolia

Encore
-----
d3t05 - One More Saturday Night ->
d3t06 - Brokedown Palace




Notes:

1) The AUD tape cuts were left intact, rather than using cross-fades.

2) The right channel of the AUD was increased slightly.



    length     expanded size    cdr  WAVE problems  fmt   ratio  filename
     0:58.35       10313564 B   ---   --   ---xx  gd80-06-21d1t01.flac
    14:43.13      155791820 B   ---   --   ---xx  gd80-06-21d1t02.flac
     8:27.73       89606540 B   ---   --   ---xx  gd80-06-21d1t03.flac
     7:27.30       78921404 B   ---   --   ---xx  gd80-06-21d1t04.flac
     2:56.56       31178156 B   ---   --   ---xx  gd80-06-21d1t05.flac
     6:37.22       70082588 B   ---   --   ---xx  gd80-06-21d1t06.flac
     8:27.00       89434844 B   ---   --   ---xx  gd80-06-21d1t07.flac
     3:36.43       38203580 B   ---   --   ---xx  gd80-06-21d1t08.flac
     7:05.46       75078236 B   ---   --   ---xx  gd80-06-21d1t09.flac
     4:16.54       45285452 B   ---   --   ---xx  gd80-06-21d1t10.flac
     9:17.46       98363036 B   ---   --   ---xx  gd80-06-21d1t11.flac
     8:48.43       93240380 B   ---   --   ---xx  gd80-06-21d2t01.flac
     4:54.61       52005116 B   ---   --   ---xx  gd80-06-21d2t02.flac
     9:28.24      100251692 B   ---   --   ---xx  gd80-06-21d2t03.flac
    11:42.07      123849308 B   ---   --   ---xx  gd80-06-21d2t04.flac
    13:57.64      147797372 B   ---   --   ---xx  gd80-06-21d2t05.flac
     7:33.72       80078588 B   ---   --   ---xx  gd80-06-21d2t06.flac
     4:54.42       51960428 B   ---   --   ---xx  gd80-06-21d3t01.flac
     8:56.01       94552796 B   ---   --   ---xx  gd80-06-21d3t02.flac
     9:27.21      100068236 B   ---   --   ---xx  gd80-06-21d3t03.flac
    12:19.65      130512524 B   ---   --   ---xx  gd80-06-21d3t04.flac
     4:37.31       48935756 B   ---   --   ---xx  gd80-06-21d3t05.flac
     6:20.10       67055564 B   ---   --   ---xx  gd80-06-21d3t06.flac
   176:55.34     1872566980 B                            0.5705  (23 files)
Show Checksums
flac-md5
9431b9a4dfb416cb8dd5a9b4c47b341f *gd80-06-21d1t01.flac
59701602dbbe8da060ab0367c134357c *gd80-06-21d1t02.flac
0d9e795e156fbf972762f65664c4f21f *gd80-06-21d1t03.flac
42018aa27d79e12b100d9234a074e570 *gd80-06-21d1t04.flac
c56acd6ae598179e0032d3909bab89f8 *gd80-06-21d1t05.flac
38c09db75f3f9dd69a52fef4d4141e67 *gd80-06-21d1t06.flac
2a81e6a7e470010504910d41201aff38 *gd80-06-21d1t07.flac
d50820d1d6ce4562cf4c19fa98b48aaf *gd80-06-21d1t08.flac
cdb28fde1f3b553cbef2ca51e3088b5b *gd80-06-21d1t09.flac
05d43f8aa85797d50f0e65b1095e7207 *gd80-06-21d1t10.flac
bc48213cdcce1a257ce9dc419b536d5a *gd80-06-21d1t11.flac
10faa159868242a052a3d53fb1eef96f *gd80-06-21d2t01.flac
9981db14235d51939f0a3150158a9d36 *gd80-06-21d2t02.flac
27e15f0a79f6eaefced153572d28c47e *gd80-06-21d2t03.flac
8b809fd0cfc10475c102ddad9c376624 *gd80-06-21d2t04.flac
0cf5aadac067d880f0eb81485be4a2e6 *gd80-06-21d2t05.flac
b787f9d9acc88cbe952fefbb86b18a62 *gd80-06-21d2t06.flac
2432b85f7d4f11d2bd04d0c5e5cc89ae *gd80-06-21d3t01.flac
e871db2efd748e4f9d6c61595cef0022 *gd80-06-21d3t02.flac
b83365155e95c8f427dfadc36f228f50 *gd80-06-21d3t03.flac
7b10d4eeeb0bc2f46ecf7d92d2284f98 *gd80-06-21d3t04.flac
7adad70cff71b3cdc7c837e50a513422 *gd80-06-21d3t05.flac
3e940a04f942f712f246c11f175e991c *gd80-06-21d3t06.flac
ffp
gd80-06-21d1t01.flac:a7131fd7c11c4661d7ec4c6f830714b9
gd80-06-21d1t02.flac:42638fb4cdfb6356d32ca78adb5d4cb6
gd80-06-21d1t03.flac:527ac081e9c8e4cfea4fccd86aecbdc8
gd80-06-21d1t04.flac:d43d7c3f1b51d20128e9e4d718c7f60e
gd80-06-21d1t05.flac:996661034af853254d67ff54fb227f4c
gd80-06-21d1t06.flac:3e2939eb1c5fcdd62e3e7a42effccad4
gd80-06-21d1t07.flac:6f421bf36ed648d09793a538991003ff
gd80-06-21d1t08.flac:1699d334e334f654e57c654c0041ac13
gd80-06-21d1t09.flac:29250cc69eb50649effc814dfd5c6df5
gd80-06-21d1t10.flac:062c19e15be26215a350c5325a481267
gd80-06-21d1t11.flac:bdf6581c1640ef4f81ac93c8555ab55e
gd80-06-21d2t01.flac:848264df96dc64e3ea6eb15fd947009d
gd80-06-21d2t02.flac:b24575a11452b378abedf19dad54db94
gd80-06-21d2t03.flac:07f5b59d011a6b2b81f6529b00c5bd12
gd80-06-21d2t04.flac:ddabe431ea9a340ed249c0d9950ddc44
gd80-06-21d2t05.flac:9ac25381207820ac6da359cb75da00e8
gd80-06-21d2t06.flac:9332f940dd893559fb556271f41a92e6
gd80-06-21d3t01.flac:feff9bcea2e62a43f6c052a849cdff45
gd80-06-21d3t02.flac:c095ad9fe8ccb7a262c24c9225a42938
gd80-06-21d3t03.flac:a26f0dcdbfae064e6c1d253d0c14cab8
gd80-06-21d3t04.flac:538297f4fff506ea7394fa21b756a42f
gd80-06-21d3t05.flac:9377b07eb40800f80ec61fdcbd7f1f85
gd80-06-21d3t06.flac:173cd80cab00d1b846c8a2287f55d98f

Comments
Add Comment
Other Sources (comments)
SBD -> ?? -> DAT(2) -> CDR;... (2) Sources:Primary... (5) Source: Recorded by Eddie... (0) flac 16; Soundboard>... (0) Bertha Remaster of (1) flac16; SBD/AUD... (0) flac24; DVD-A 24/44... (0) flac16; DTS-Audio-CD... (0) flac16; Repatched... (1) flac16; Recorded by... (0) flac16;Recording... (0)
Date User Comment