Browse Collections Artists Sources   Search Dates

Add Show    List Management    Help


Grateful Dead 06/21/76
The Tower Theatre, Upper Darby, PA
Comments Add Comment    Source Collectors    Add to Collection    Add to Want List    History
Source # 112162 Other Sources
Entered by Matt Vernon
Checksums ffp , flac-md5
Disc Counts 2 / 3
Media Size
Date Circulated
Date Added
02/28/2011
02/28/2011
Source Summary flac16; Recording Info: Stereo Microphone (Possibly Sony Microphone) -> Cassette Master (Nakamichi 550); Transfer Info: Cassette Master (Nakamichi CR-7A) -> Apogee Ensemble -> AIFF -> Samplitude Professional v11.2 -> FLAC; Transferred By Digitalrbb; Mastered By Charlie Miller 
  Archive
Source Information - Download Text | Download Zip
Grateful Dead - June 21, 1976
Tower Theatre - Upper Darby, PA

Recording Info:
Stereo Microphone (Possibly Sony Microphone) -> Cassette Master (Nakamichi 550)

Transfer Info:
Cassette Master (Nakamichi CR-7A) -> Apogee Ensemble -> AIFF -> Samplitude Professional v11.2 -> FLAC
(3 Discs Audio / 2 Discs FLAC)

Transferred By Digitalrbb
Mastered By Charlie Miller
[email protected]
February 27, 2011

Patch Info:
Shure Mics -> Cassette Master -> Dat -> CD (shnid=6679) supplies:
Row Jimmy (8:10 - end of track)
Looks Like Rain (complete track)
Scarlet Begonias (complete track)
Lazy Lightnin' (complete track)
Supplication (complete track)
Candyman (complete track)
Promised Land (complete track)
The Wheel (2:56 - end of track)
Samson And Delilah (0:00 - 0:38)

Notes:
-- All disc chamges are seamless
-- Thanks to Digitalrbb for supplying the recording
-- The tape was recorded by a Grateful Dead crew member
-- The tape was labeled "For Danny" (They were made for Dan Healy)
-- Thanks to Digitalrbb for the supplying and digitizing the tapes
-- Thanks to Betty Cantor-Jackson for supplying some info on the tapes
-- Thanks to Joe B. Jones for his help pitch correcting the patch source

Set 1:
d1t01 - The Music Never Stopped
d1t02 - Sugaree
d1t03 - Mama Tried
d1t04 - Brown Eyed Women
d1t05 - Cassidy
d1t06 - Row Jimmy
d1t07 - Looks Like Rain
d1t08 - Scarlet Begonias
d1t09 - Lazy Lightnin' ->
d1t10 - Supplication
d2t01 - Candyman
d2t02 - Promised Land

Set 2:
d2t03 - The Wheel
d2t04 - Samson And Deliah
d2t05 - Help On The Way ->
d2t06 - Slipknot! ->
d2t07 - Franklin's Tower
d3t01 - Dancing In The Street ->
d3t02 - Wharf Rat ->
d3t03 - Around And Around
d3t04 - It Must Have Been The Roses
d3t05 - Johnny B. Goode


SHNTOOL OUTPUT:
    length     expanded size   cdr  WAVE problems filename
     6:56.36       73467116    ---   --   -----   gd76-06-21d1t01.wav
    14:51.06      157186556    ---   --   -----   gd76-06-21d1t02.wav
     4:34.09       48354812    ---   --   -----   gd76-06-21d1t03.wav
     6:44.12       71293868    ---   --   -----   gd76-06-21d1t04.wav
     5:37.53       59571500    ---   --   -----   gd76-06-21d1t05.wav
    11:01.00      116600444    ---   --   -----   gd76-06-21d1t06.wav
     8:23.68       88889180    ---   --   -----   gd76-06-21d1t07.wav
    11:33.56      122376956    ---   --   -----   gd76-06-21d1t08.wav
     2:45.50       29223644    ---   --   -----   gd76-06-21d1t09.wav
     4:50.00       51156044    ---   --   -----   gd76-06-21d1t10.wav
     8:06.49       85845692    ---   --   -----   gd76-06-21d2t01.wav
     4:23.49       46508492    ---   --   -----   gd76-06-21d2t02.wav
     5:12.44       55140332    ---   --   -----   gd76-06-21d2t03.wav
     7:40.17       81184028    ---   --   -----   gd76-06-21d2t04.wav
     4:50.02       51160748    ---   --   -----   gd76-06-21d2t05.wav
     8:24.43       89006780    ---   --   -----   gd76-06-21d2t06.wav
    12:15.45      129759884    ---   --   -----   gd76-06-21d2t07.wav
    11:39.25      123362444    ---   --   -----   gd76-06-21d3t01.wav
    10:46.35      114036764    ---   --   -----   gd76-06-21d3t02.wav
     8:25.22       89133788    ---   --   -----   gd76-06-21d3t03.wav
     8:34.48       90782540    ---   --   -----   gd76-06-21d3t04.wav
     4:27.57       47232908    ---   --   -----   gd76-06-21d3t05.wav
   172:04.51     1821274520 B                     (totals for 22 files)
Show Checksums
ffp
gd76-06-21d1t01.flac:da2f86eed8dabe99597a56bb9286b356
gd76-06-21d1t02.flac:68f7a176d226f63a559eeea5238918d7
gd76-06-21d1t03.flac:8b22032e7ec61f2b71ee3463756c211d
gd76-06-21d1t04.flac:513de5060b8d31059241bb900c03d30c
gd76-06-21d1t05.flac:22d092fb4d7852b72f8ac9def9840093
gd76-06-21d1t06.flac:05e7770cf4618a52e347fdbf1f61574b
gd76-06-21d1t07.flac:d6a4ad18044150d8a2d09826265d9f22
gd76-06-21d1t08.flac:58d9eb27dec438ac4f292aaf0b405f8a
gd76-06-21d1t09.flac:5694500d74218b1246a5b9f9ad31024f
gd76-06-21d1t10.flac:7d44158fd91a5c262bdef5989663ac78
gd76-06-21d2t01.flac:9d7ad4ff36d4089b3ac099693f0a13f1
gd76-06-21d2t02.flac:750818c073401be4f2b4ab2bcfa2c65c
gd76-06-21d2t03.flac:4e7d7cb2d424e77811dc4de3f25c867b
gd76-06-21d2t04.flac:662b9e394f10e5067e8a954cf5b0edbf
gd76-06-21d2t05.flac:63cc1ea9b3e48be9c117083c24e857c4
gd76-06-21d2t06.flac:71b5df54cd934bae233c92df3d34796d
gd76-06-21d2t07.flac:7435ba78755fe6ad364f182ed5e2a2e8
gd76-06-21d3t01.flac:4fbccb7a44ffe93425856bf596e8a670
gd76-06-21d3t02.flac:1d4c869fc634409b387044d0c5d89838
gd76-06-21d3t03.flac:4dd6438352f12cf5ad03ea7a312c2bc0
gd76-06-21d3t04.flac:7ba1e8639d8dfe0799d41f21088ffb92
gd76-06-21d3t05.flac:500f969e0251b24b0fc5192dd22751e0
flac-md5
3c68e9231bd88b61bd12ac6ba002e7f1 *gd76-06-21d1t01.flac
c598fd5b679e86b6b9ca6e9d32390106 *gd76-06-21d1t02.flac
8cc183a9550983b87fec75bea0476daf *gd76-06-21d1t03.flac
69842b5d5e9d0f66aee886275b60452a *gd76-06-21d1t04.flac
a6c1a0882430108f2994e04f670ba763 *gd76-06-21d1t05.flac
accd1b3f9deb2fbf2abe29e7af378c8f *gd76-06-21d1t06.flac
1ba0cf5a061a594ac1459d6472020a30 *gd76-06-21d1t07.flac
eefabd0dfff382105d45caad802810a2 *gd76-06-21d1t08.flac
9dcdfc1b6875375b628d2e2b4bd8c8fb *gd76-06-21d1t09.flac
fccacd88d0122eb79ca7a4ecc64b3172 *gd76-06-21d1t10.flac
177e4e869fc7ecd38185a6b5347a8c5d *gd76-06-21d2t01.flac
05abfdaada12bfc5f7ed5fb770825f2b *gd76-06-21d2t02.flac
b166de5af458a66981d0cb55bca7df9b *gd76-06-21d2t03.flac
b054b573aa822b05103b14880ffe332e *gd76-06-21d2t04.flac
3a822945d61511bcbaee702b1df7e6ef *gd76-06-21d2t05.flac
bc9582487d24879dee5bf2bf5f37ca37 *gd76-06-21d2t06.flac
0e0479fcb3710c023bbc4631f4d03abd *gd76-06-21d2t07.flac
b73814bdec611dbb8ed3d55f09827102 *gd76-06-21d3t01.flac
a84e4ce6937c533de87c33891ed9edac *gd76-06-21d3t02.flac
d2dccbfda3247622b0844959cdca4891 *gd76-06-21d3t03.flac
90a6691cb35bde36a6608a83c7f25bfc *gd76-06-21d3t04.flac
f742258136969944e7c22d88c76385b8 *gd76-06-21d3t05.flac

Comments
Add Comment
Other Sources (comments)
Shure mics> Sony TC-152... (4) flac16; Recording... (0) flac16; Recording... (3) flac16; Matrix by... (0) flac16; Recording... (0) flac16; Matrix by... (0)
Date User Comment