Browse Collections Artists Sources   Search Dates

Add Show    List Management    Help


Grateful Dead 12/05/79
Uptown Theater, Chicago, IL
Comments Add Comment    Source Collectors    Add to Collection    Add to Want List    History
Source # 112163 Other Sources
Entered by Matt Vernon
Checksums flac-md5 , ffp
Disc Counts 2 / 3
Media Size
Date Circulated
Date Added
02/28/2011
02/28/2011
Source Summary flac16; Recording Info: SBD -> Cassette Master -> Dat (44.1k) -> Data DVD; Transfer Info: Data DVD -> Adobe Audition v3.0 -> Samplitude Professional v11.2 -> FLAC; All Transfers and Mastering By Charlie Miller 
  Archive
Source Information - Download Text | Download Zip
Grateful Dead - December 5, 1979
Uptown Theatre - Chicago, IL

Recording Info:
SBD -> Cassette Master -> Dat (44.1k) -> Data DVD

Transfer Info:
Data DVD -> Adobe Audition v3.0 -> Samplitude Professional v11.2 -> FLAC
(3 Discs Audio / 2 Discs FLAC)

All Transfers and Mastering By Charlie Miller
[email protected]
February 27, 2011

Patch Info:
Unknown Sourced audience recording (shnid=19418) supplies:
Shakedown Street (11:11 - 11:24)
The Other One (0:34 - 0:54)
Bertha (5:44 - 5:47)

Notes:
-- Set 2 is seamless
-- Thanks to Jacque for being patient with me while I worked on this
-- Thanks to Joe B. Jones for his help with the pitch correction

Set 1:
d1t01 - Tuning
d1t02 - Alabama Getaway ->
d1t03 - Greatest Story Ever Told
d1t04 - Dire Wolf
d1t05 - Me And My Uncle ->
d1t06 - Big River
d1t07 - Cold Rain And Snow
d1t08 - Easy To Love You ->
d1t09 - Althea ->
d1t10 - Lost Sailor ->
d1t11 - Saint Of Circumstance

Set 2:
d2t01 - Tuning
d2t02 - Shakedown Street ->
d2t03 - Samson And Delilah
d2t04 - Ship Of Fools
d2t05 - He's Gone ->
d2t06 - The Other One ->
d2t07 - Drums ->
d3t01 - Space ->
d3t02 - Black Peter ->
d3t03 - I Need A Miracle ->
d3t04 - Bertha ->
d3t05 - Good Lovin'

Encore:
d3t06 - Johnny B. Goode
d3t07 - Don't Ease Me In


SHNTOOL OUTPUT:
    length     expanded size   cdr  WAVE problems filename
     4:40.29       49460252    ---   --   -----   gd79-12-05d1t01.wav
     7:09.35       75757964    ---   --   -----   gd79-12-05d1t02.wav
     7:13.28       76447100    ---   --   -----   gd79-12-05d1t03.wav
     5:45.59       60996812    ---   --   -----   gd79-12-05d1t04.wav
     3:06.14       32843372    ---   --   -----   gd79-12-05d1t05.wav
     9:24.18       99531980    ---   --   -----   gd79-12-05d1t06.wav
    11:30.27      121779548    ---   --   -----   gd79-12-05d1t07.wav
     3:15.41       34494476    ---   --   -----   gd79-12-05d1t08.wav
    11:05.43      117407180    ---   --   -----   gd79-12-05d1t09.wav
     6:42.09       70934012    ---   --   -----   gd79-12-05d1t10.wav
     6:03.37       64120268    ---   --   -----   gd79-12-05d1t11.wav
     0:57.14       10087772    ---   --   -----   gd79-12-05d2t01.wav
    17:47.05      188230604    ---   --   -----   gd79-12-05d2t02.wav
    10:27.56      110734556    ---   --   -----   gd79-12-05d2t03.wav
    13:27.72      142524188    ---   --   -----   gd79-12-05d2t04.wav
    16:26.08      173949260    ---   --   -----   gd79-12-05d2t05.wav
    17:27.10      184714364    ---   --   -----   gd79-12-05d2t06.wav
     2:48.16       29672876    ---   --   -----   gd79-12-05d2t07.wav
     5:29.14       58068572    ---   --   -----   gd79-12-05d3t01.wav
    12:11.65      129101324    ---   --   -----   gd79-12-05d3t02.wav
     3:14.57       34355708    ---   --   -----   gd79-12-05d3t03.wav
     6:39.02       70388348    ---   --   -----   gd79-12-05d3t04.wav
    11:42.43      123933980    ---   --   -----   gd79-12-05d3t05.wav
     5:37.36       59531516    ---   --   -----   gd79-12-05d3t06.wav
     3:35.11       37951916    ---   --   -----   gd79-12-05d3t07.wav
   203:47.74     2157017948 B                     (totals for 25 files)
Show Checksums
flac-md5
07b26af591c8381a7762058b7b31285f *gd79-12-05d1t01.flac
2bd844f25dfa1b3ff050c25f2da3de3f *gd79-12-05d1t02.flac
9bcfeb732289f4ea8464e5b099bd4328 *gd79-12-05d1t03.flac
a1d94fa715361a42dfa23c732fcedd3e *gd79-12-05d1t04.flac
f3c6fc31e201565e9d1e0b2a86bb1a73 *gd79-12-05d1t05.flac
6bcfff00e099271d220a7ed64d252637 *gd79-12-05d1t06.flac
46da68c5d1905f3c5625a8c591f321c6 *gd79-12-05d1t07.flac
f638d9618fc5938ae0763a613208f56a *gd79-12-05d1t08.flac
448f241a6448f0cf51d9082228b3cb66 *gd79-12-05d1t09.flac
0c68db2ad3a552d316df78624fe6c21b *gd79-12-05d1t10.flac
1cc3098d54ca40bb660698550bf1c0bd *gd79-12-05d1t11.flac
921f44361a3ea1c99fa33bc3895f5c98 *gd79-12-05d2t01.flac
1c7ca7a56e12aa72d63515e19fd516ce *gd79-12-05d2t02.flac
7693250e06ce94be9b135283003867a7 *gd79-12-05d2t03.flac
8611583fe63a44ac0de42d9de7cd66c3 *gd79-12-05d2t04.flac
d7a12722791da8245b2ff9e036c06c18 *gd79-12-05d2t05.flac
e87e022193b17d87bf36a10955e671ba *gd79-12-05d2t06.flac
45193a5cee7c8a4b059f1eb817015ceb *gd79-12-05d2t07.flac
e3476d6b35096caa44cd8a1d0bade90d *gd79-12-05d3t01.flac
cb76894ced2557e9d90b91eabf7e2967 *gd79-12-05d3t02.flac
de769edc2650eef0d928d4afd9b41ece *gd79-12-05d3t03.flac
97635079089160e904bde1455c475ead *gd79-12-05d3t04.flac
fb7a1e16131796150c3d7b7e56e9c93c *gd79-12-05d3t05.flac
35b705a1001c213133025ddb0a1bd446 *gd79-12-05d3t06.flac
beea5f85f6787c356fc9ceb0f036d31b *gd79-12-05d3t07.flac
ffp
gd79-12-05d1t01.flac:14f6090cf22524ce0e51e56c0fae8e4e
gd79-12-05d1t02.flac:434dc758c0911a852cf765b5a2c1d60a
gd79-12-05d1t03.flac:3397c0e0b55893cf7df5badcc6b436df
gd79-12-05d1t04.flac:2205e05a6da524d56545476e1028e7d4
gd79-12-05d1t05.flac:3b8eb768d005aa087d6045cd04dd817e
gd79-12-05d1t06.flac:764ec34e861b8f8f2797802a52e66003
gd79-12-05d1t07.flac:ece02f18bfe700684d4def94244623ba
gd79-12-05d1t08.flac:819a30636a13c854216f8b2552b72088
gd79-12-05d1t09.flac:781cc3b17b8cb748b0181686e39ab481
gd79-12-05d1t10.flac:3ac1df15bd1c037613d344463ef73d1c
gd79-12-05d1t11.flac:76eaca0ad773a728b437df7a25102121
gd79-12-05d2t01.flac:fee998ae594b856c8cc9d87d47e11fb3
gd79-12-05d2t02.flac:9ae3c89b9314f84dc7b3cfd77a7af5a9
gd79-12-05d2t03.flac:f920ec1fb114e50c9013dc569de0c4f7
gd79-12-05d2t04.flac:2886bca3d4969aee6be6330cea8ae967
gd79-12-05d2t05.flac:e117851d0e6c03f4a1ac010adfa2ddf2
gd79-12-05d2t06.flac:1c71414198184c058b4bf03d56cca8a8
gd79-12-05d2t07.flac:aff70b14a930197f194141b3adaa5a2f
gd79-12-05d3t01.flac:0421c7956b8fe37c63e236add3d4d6e0
gd79-12-05d3t02.flac:f390f8244e8c1ba61f53e7e801899827
gd79-12-05d3t03.flac:b5f1c0daec0928478665e2c2b8ea211e
gd79-12-05d3t04.flac:9c95301ace798f30a0602112c9583812
gd79-12-05d3t05.flac:ae90760f0e7168ee0030f6de2865a9d7
gd79-12-05d3t06.flac:2fc6b416babb743c81851b230851d186
gd79-12-05d3t07.flac:e39722349d2a2690d7e052fd587b0463

Comments
Add Comment
Other Sources (comments)
2nd set minus ship of fools... (1) MAC (Unknown equipment) >... (1) flac16; SBD (set 2... (5) flac16; composite of... (0) flac16; Recording by... (0) flac16:Matrix by... (0) flac16; Recorded By... (0)
Date User Comment