Browse Collections Artists Sources   Search Dates

Add Show    List Management    Help


Grateful Dead 12/01/73
Music Hall, Boston, MA
Comments Add Comment    Source Collectors    Add to Collection    Add to Want List    History
Source # 112205 Other Sources
Entered by Matt Vernon
Checksums ffp , flac-md5
Disc Counts 2 / 4
Media Size
Date Circulated
Date Added
03/02/2011
03/02/2011
Source Summary flac16; Recording Info: SBD -> Master Reel -> Dat (44.1k); Transfer Info: Dat (Sony R500) -> Tascam SS-R05 -> Samplitude Professional 11.2 -> FLAC; All Transfers and Mastering By Charlie Miller 
  Archive
Source Information - Download Text | Download Zip
Grateful Dead - December 1, 1973
Boston Music Hall - Boston, MA

Recording Info:
SBD -> Master Reel -> Dat (44.1k)

Transfer Info:
Dat (Sony R500) -> Tascam SS-R05 -> Adobe Audition v3.0 -> Samplitude Professional 11.2 -> FLAC
(4 Discs Audio / 1 DVD FLAC)

All Transfers and Mastering By Charlie Miller
[email protected]
March 4, 2011

Notes:
-- All disc changes are seamless
-- You can move the disc changes to fit the show onto 3 discs
-- Thanks to David Gans for lending me his Dats
-- Thanks to Robert Darst for his help with the soundcheck
-- Thanks to Joe B. Jones for his help with the pitch correction

Soundcheck:
d1t01 - Jam
d1t02 - Blue Suede Shoes
d1t03 - Workingman's Blues

Set 1:
d1t04 - Tuning
d1t05 - Promised Land
d1t06 - Sugaree
d1t07 - Mexicali Blues
d1t08 - Tennessee Jed
d1t09 - Looks Like Rain
d1t10 - China Cat Sunflower ->
d1t11 - I Know You Rider
d1t12 - Big River
d2t01 - Brokedown Palace
d2t02 - Weather Report Suite
d2t03 - Casey Jones

Set 2:
d2t04 - Tuning
d2t05 - Around And Around
d2t06 - They Love Each Other
d2t07 - Me And My Uncle
d2t08 - Don't Ease Me In
d2t09 - Me And Bobby McGee
d3t01 - Mississippi Half-Step Uptown Toodeloo ->
d3t02 - Playing In The Band ->
d3t03 - Uncle John's Band ->
d3t04 - Playing In The Band
d3t05 - Row Jimmy
d3t06 - Greatest Story Ever Told
d4t01 - Not Fade Away ->
d4t02 - Goin' Down The Road Feeling Bad ->
d4t03 - One More Saturday Night


SHNTOOL OUTPUT:
    length     expanded size   cdr  WAVE problems filename
     1:32.31       16301756    ---   --   -----   gd73-12-01d1t01.wav
     3:10.37       33603068    ---   --   -----   gd73-12-01d1t02.wav
    10:46.66      114109676    ---   --   -----   gd73-12-01d1t03.wav
     0:51.15        9031724    ---   --   -----   gd73-12-01d1t04.wav
     4:20.58       46000460    ---   --   -----   gd73-12-01d1t05.wav
     8:08.23       86137340    ---   --   -----   gd73-12-01d1t06.wav
     4:28.70       47439884    ---   --   -----   gd73-12-01d1t07.wav
    10:55.27      115605548    ---   --   -----   gd73-12-01d1t08.wav
     9:22.65       99289724    ---   --   -----   gd73-12-01d1t09.wav
     8:53.31       94094156    ---   --   -----   gd73-12-01d1t10.wav
     6:52.70       72841484    ---   --   -----   gd73-12-01d1t11.wav
     5:14.03       55396700    ---   --   -----   gd73-12-01d1t12.wav
     7:29.28       79269500    ---   --   -----   gd73-12-01d2t01.wav
    16:32.73      175160540    ---   --   -----   gd73-12-01d2t02.wav
     7:28.21       79076636    ---   --   -----   gd73-12-01d2t03.wav
     0:53.21        9398636    ---   --   -----   gd73-12-01d2t04.wav
     5:29.16       58073276    ---   --   -----   gd73-12-01d2t05.wav
    11:41.04      123665852    ---   --   -----   gd73-12-01d2t06.wav
     5:49.48       61676540    ---   --   -----   gd73-12-01d2t07.wav
     7:31.50       79674044    ---   --   -----   gd73-12-01d2t08.wav
     5:55.26       62683196    ---   --   -----   gd73-12-01d2t09.wav
     7:55.51       83909996    ---   --   -----   gd73-12-01d3t01.wav
    13:40.43      144749180    ---   --   -----   gd73-12-01d3t02.wav
     9:51.54      104379452    ---   --   -----   gd73-12-01d3t03.wav
    10:47.28      114196700    ---   --   -----   gd73-12-01d3t04.wav
    10:23.11      109923116    ---   --   -----   gd73-12-01d3t05.wav
     5:39.18       59841980    ---   --   -----   gd73-12-01d3t06.wav
    10:25.23      110304140    ---   --   -----   gd73-12-01d4t01.wav
     8:50.16       93529676    ---   --   -----   gd73-12-01d4t02.wav
     5:20.58       56584460    ---   --   -----   gd73-12-01d4t03.wav
   226:22.35     2395948440 B                     (totals for 30 files)
Show Checksums
ffp
gd73-12-01d1t01.flac:4d6274783a2e961b33399cbe6995290d
gd73-12-01d1t02.flac:018920ac483df87ef47f8d2fbd420d32
gd73-12-01d1t03.flac:71a39f58bc7429d063bda1e5a0ca9e93
gd73-12-01d1t04.flac:7427a3385aad915b6c3f349450273e71
gd73-12-01d1t05.flac:56da1185e1ccdcb2d44f3bac8b37824c
gd73-12-01d1t06.flac:b630c7404ba8c012e5ab0f6f392a7961
gd73-12-01d1t07.flac:42bf667bd72fa3b7277a13b6b6ebcf95
gd73-12-01d1t08.flac:027807231a835e7c3a5667695e35a231
gd73-12-01d1t09.flac:aa804164ec56d8352dedff27ca108b59
gd73-12-01d1t10.flac:2d219d71f06c8d1b8b57693f833390ed
gd73-12-01d1t11.flac:46ff29e0175a7b43fba91a8323f87f77
gd73-12-01d1t12.flac:1d9b0a7d1fb672e5ba5915b2c3862074
gd73-12-01d2t01.flac:326f487839e8d130800dace59ac72e4f
gd73-12-01d2t02.flac:9b69bbb6815c2c018278d5b01fd75be8
gd73-12-01d2t03.flac:fcb837afcd46b0a29fb424dc7b64ce08
gd73-12-01d2t04.flac:3715fa91db361d150a81408a64addb74
gd73-12-01d2t05.flac:6e6c1d5a588c1f87ca83de1c838213bf
gd73-12-01d2t06.flac:b3adaeccb67c5698b0f77ea7461bffb3
gd73-12-01d2t07.flac:e4b6944f335474d440ee9ed8fbe512a4
gd73-12-01d2t08.flac:daca0e122e8bffbf15b68bf7c0f157d1
gd73-12-01d2t09.flac:fa7d25ad40abda6198d874d4cee4afba
gd73-12-01d3t01.flac:567e39cbb99b832603face7c9879e712
gd73-12-01d3t02.flac:9b1ddd2ce65e8e7c004a5a1875036fdf
gd73-12-01d3t03.flac:1c963d36cd1cd1a2754157124c2dbc62
gd73-12-01d3t04.flac:88de4bc168b427055b96fc436bfaacdb
gd73-12-01d3t05.flac:0565444f45c72d670d8595f796011f06
gd73-12-01d3t06.flac:2d1680471599a2a49e1b499c87bd1c04
gd73-12-01d4t01.flac:401073f49425ab8b5dc36f378ed96d8a
gd73-12-01d4t02.flac:c96ad58a65898047ed899b0c35239d46
gd73-12-01d4t03.flac:67536b1ec849be38bfc5d0d7573c58cd
flac-md5
4796da03dd56c85edaee8312ae01387b *gd73-12-01d1t01.flac
d717f9c28fee7a40bf2ce0c3e2ff50d8 *gd73-12-01d1t02.flac
86658a232478ed09ce96fd50d078637d *gd73-12-01d1t03.flac
e5d03d1dcfd6f0c73c3730bda3f51e43 *gd73-12-01d1t04.flac
4986e0f1e0d44944b361b5562361d831 *gd73-12-01d1t05.flac
26d3ee068a00516d14c7a3270d91ea62 *gd73-12-01d1t06.flac
c626f5e017e7bd93ed2295482671d09d *gd73-12-01d1t07.flac
604ef79fdbd3865833cd5b09b5ebb6ee *gd73-12-01d1t08.flac
32da1932018c51a6331c7a8d11e5e767 *gd73-12-01d1t09.flac
aa5f5b94a3a554687bb4a92cf8951280 *gd73-12-01d1t10.flac
6fc45337910fb64114ad1f4e93ddebbe *gd73-12-01d1t11.flac
70e888e7b20e08755509af0b037128ca *gd73-12-01d1t12.flac
e345b5c2dc18f034e3285221b1299b84 *gd73-12-01d2t01.flac
59bc012cfbb1e3717e8ece2475292d97 *gd73-12-01d2t02.flac
2afbd0e0eec27fcc36fef64fd3a5b255 *gd73-12-01d2t03.flac
79c61228537ff10b3571999783b989dc *gd73-12-01d2t04.flac
30626374b39355c6af5da09a1dc85d0d *gd73-12-01d2t05.flac
23dd5ee74e70bc7a419abe012d2de55c *gd73-12-01d2t06.flac
3a3d3aeaf938547e79f7f05cd6529eab *gd73-12-01d2t07.flac
77a57eeb0bc7292bf1da297680cbdfd8 *gd73-12-01d2t08.flac
4130e2ffb8be706b7ebd968bb47157a8 *gd73-12-01d2t09.flac
bd6f7077cfec3b20378554ca542db712 *gd73-12-01d3t01.flac
8c1ec3ebea4891220b52536749295e83 *gd73-12-01d3t02.flac
992ceb54868d49e867aec5e7794410bf *gd73-12-01d3t03.flac
1c36deb17e0e8dc6410b3cd72ba45c39 *gd73-12-01d3t04.flac
1c397b80c4503c14ba337a0f38aee807 *gd73-12-01d3t05.flac
88bbbeff94987899c1644ad2cd837907 *gd73-12-01d3t06.flac
a84a4c8b9c1622445371af9b8444afd8 *gd73-12-01d4t01.flac
8d061f06fbb7eab27daa50ab99dbb514 *gd73-12-01d4t02.flac
7c10f708f60209a7544bad217098b380 *gd73-12-01d4t03.flac

Comments
Add Comment
Other Sources (comments)
SBD> MR> DAT> Sonic... (3) same info file as (0) Master Soundboard Reels >... (1) AUDMC(unknown mics) > ? > C... (0) flac16; Audience... (1) flac16; FOB AUD... (0) flac16; 2 source... (0)
Date User Comment