Browse Collections Artists Sources   Search Dates

Add Show    List Management    Help


Grateful Dead 12/05/79
Uptown Theater, Chicago, IL
Comments Add Comment    Source Collectors    Add to Collection    Add to Want List    History
Source # 112235 Other Sources
Entered by Matt Vernon
Checksums flac-md5 , ffp
Disc Counts 2 / 3
Media Size
Date Circulated
Date Added
03/06/2011
03/06/2011
Source Summary flac16:Matrix by Hunter Seamons using Final Cut Pro (FLAC > AIFF > Final Cut w/couple areas of EQ > AIFF CD tracking via Audacity > FLAC16 via xACT)  
  Archive
Source Information - Download Text | Download Zip
Grateful Dead
Uptown Theatre
Chicago, IL
December 5, 1979

Jerry Garcia - Lead Guitar, Vocals
Mickey Hart - Drums
Bill Kreutzmann - Drums
Phil Lesh - Electric Bass, Vocals
Brent Mydland - Keyboards, Vocals
Bob Weir - Rhythm Guitar, Vocals




*Matrix*



-----------------------------------------------------------------
SBD (shnid=112163):

Recording Info:
SBD -> Cassette Master -> Dat (44.1k) -> Data DVD

Transfer Info:
Data DVD -> Adobe Audition v3.0 -> Samplitude Professional v11.2 -> FLAC
(3 Discs Audio / 2 Discs FLAC)

All Transfers and Mastering By Charlie Miller
[email protected]
February 27, 2011

[Cuts:]
Shakedown Street (11:11 - 11:24)
The Other One (0:34 - 0:54)
Bertha (5:44 - 5:47)

Notes:
-- Thanks to Jacque for being patient with me while I worked on this
-- Thanks to Joe B. Jones for his help with the pitch correction

[2 minutes and 15 seconds of Shakedown are repeated due to a splice.]
[Don't Ease Me In appears to be from a lesser quality source.]

-----------------------------------------------------------------
AUD (shnid=83532):

Recording by Ira Frisch:
Master Audience Cassette; 2 Sennheiser 421s + Sennheiser 441> Nakamichi 550
Transfer and SHN encoding by David Minches:
Master played back on Nak Dragon> Grace Lunatec V3 (24/96)> Digital Audio Labs Card Deluxe> Adobe Audition> (dither/downsample)> FLAC encoding

[Tape flip during Drums]
[3/21/07]

-----------------------------------------------------------------
Thank you to Charlie Miller for the SBD transfer,
to Ira Frisch for recording the show,
and to David Minches for the AUD transfer.

Matrix by Hunter Seamons using Final Cut Pro (FLAC > AIFF > Final Cut w/couple areas of EQ > AIFF CD tracking via Audacity > FLAC16 via xACT)
March 5, 2011



Set I
-----
d1t01 - Tuning
d1t02 - Alabama Getaway ->
d1t03 - Greatest Story Ever Told
d1t04 - Dire Wolf
d1t05 - Me And My Uncle ->
d1t06 - Big River
d1t07 - Cold Rain And Snow
d1t08 - Easy To Love You ->
d1t09 - Althea ->
d1t10 - Lost Sailor ->
d1t11 - Saint Of Circumstance

Set II
-----
d2t01 - Tuning
d2t02 - Shakedown Street ->
d2t03 - Samson And Delilah
d2t04 - Ship Of Fools
d2t05 - He's Gone ->
d2t06 - The Other One ->
d2t07 - Drums ->
d3t01 - Space ->
d3t02 - Black Peter ->
d3t03 - I Need A Miracle ->
d3t04 - Bertha ->
d3t05 - Good Lovin'

Encore
------
d3t06 - Johnny B. Goode
d3t07 - Don't Ease Me In





    length     expanded size    cdr  WAVE problems  fmt   ratio  filename
     2:45.62       29251868 B   ---   --   ---xx  gd79-12-05d1t01.flac
     7:09.74       75849692 B   ---   --   ---xx  gd79-12-05d1t02.flac
     7:12.67       76362428 B   ---   --   ---xx  gd79-12-05d1t03.flac
     5:45.51       60977996 B   ---   --   ---xx  gd79-12-05d1t04.flac
     3:06.03       32817500 B   ---   --   ---xx  gd79-12-05d1t05.flac
     9:24.14       99522572 B   ---   --   ---xx  gd79-12-05d1t06.flac
     9:49.25      103958444 B   ---   --   ---xx  gd79-12-05d1t07.flac
     3:43.68       39497180 B   ---   --   ---xx  gd79-12-05d1t08.flac
    11:07.16      117696476 B   ---   --   ---xx  gd79-12-05d1t09.flac
     6:40.67       70717628 B   ---   --   ---xx  gd79-12-05d1t10.flac
     6:44.15       71300924 B   ---   --   ---xx  gd79-12-05d1t11.flac
     0:51.50        9114044 B   ---   --   ---xx  gd79-12-05d2t01.flac
    15:29.12      163903868 B   ---   --   ---xx  gd79-12-05d2t02.flac
    10:28.05      110791004 B   ---   --   ---xx  gd79-12-05d2t03.flac
    13:28.32      142606508 B   ---   --   ---xx  gd79-12-05d2t04.flac
    16:44.07      177122108 B   ---   --   ---xx  gd79-12-05d2t05.flac
    17:10.13      181722620 B   ---   --   ---xx  gd79-12-05d2t06.flac
     3:43.43       39438380 B   ---   --   ---xx  gd79-12-05d2t07.flac
     4:33.19       48201932 B   ---   --   ---xx  gd79-12-05d3t01.flac
    12:11.13      128979020 B   ---   --   ---xx  gd79-12-05d3t02.flac
     3:21.15       35491724 B   ---   --   ---xx  gd79-12-05d3t03.flac
     6:32.15       69184124 B   ---   --   ---xx  gd79-12-05d3t04.flac
    11:42.47      123943388 B   ---   --   ---xx  gd79-12-05d3t05.flac
     5:37.35       59529164 B   ---   --   ---xx  gd79-12-05d3t06.flac
     4:03.57       42999308 B   ---   --   ---xx  gd79-12-05d3t07.flac
   199:27.00     2110979900 B                            0.5992  (25 files)

Show Checksums
flac-md5
367c2876f384491ca8d1e193ea736c02 *gd79-12-05d1t01.flac
08ca64fdaa1d557bd3a4f3944ba6d603 *gd79-12-05d1t02.flac
e53efe90b550715203b3b293f85a2ba5 *gd79-12-05d1t03.flac
b91d834d8940650d551c24c34177ada2 *gd79-12-05d1t04.flac
d81d25dea27bb51e0f84cd88b5d17045 *gd79-12-05d1t05.flac
bfeefc7869df32d62b41b18d5c61f6ed *gd79-12-05d1t06.flac
a7c5de5571199054b39139d53fe76a83 *gd79-12-05d1t07.flac
40d7bb1b475b25b4860d2981de86cbb1 *gd79-12-05d1t08.flac
5bddd287d865c47c4ff61f845989514d *gd79-12-05d1t09.flac
fda4ce13eb3c507cd6ccdaf19f28ad50 *gd79-12-05d1t10.flac
e3cec93c7125e605dfe4df010462525f *gd79-12-05d1t11.flac
b5db40cecd732ec736a2ea6947c2ef93 *gd79-12-05d2t01.flac
31a0aad3f863d936704ef58feec7c46e *gd79-12-05d2t02.flac
b16bfbaafe9659538b7ed4587fdc00a0 *gd79-12-05d2t03.flac
c562efa742e28086642e84acb0b61206 *gd79-12-05d2t04.flac
a82901e49d0e78adfd496dba8978828a *gd79-12-05d2t05.flac
6b20a39ad095692098b4d5d93b9f46fd *gd79-12-05d2t06.flac
3f41a61cc99e99eeb01a8dd2531a2f3c *gd79-12-05d2t07.flac
d4ed99ed0efb2473ddb752d53b5446ba *gd79-12-05d3t01.flac
43df475a0cbe475cf76f547bc543eadc *gd79-12-05d3t02.flac
fd8000f4e86d732a3d481ce3d0f67d5c *gd79-12-05d3t03.flac
2df617350e8b129b14f89b889dff0b00 *gd79-12-05d3t04.flac
6cb768888611635c65a63f2c5b93a0ba *gd79-12-05d3t05.flac
0c3621e8f69623b095a46f833aab8fdf *gd79-12-05d3t06.flac
0f53851c646615ca1c0e5788f5f572aa *gd79-12-05d3t07.flac
ffp
gd79-12-05d1t01.flac:54db1841adaed9589058839e5fb73044
gd79-12-05d1t02.flac:12acce4527c542f0f1f45b9f9e172ab6
gd79-12-05d1t03.flac:0dcae0fddbd1c1dd551e9e7ca88edb69
gd79-12-05d1t04.flac:d1db37253b90861f60c3d3c52665ea47
gd79-12-05d1t05.flac:bdbda24b74a546d3796aaabec27ee484
gd79-12-05d1t06.flac:d44827c7bd5fa9fcc242e11414afa371
gd79-12-05d1t07.flac:d9f0ee1392f310fdacd55e77a5830122
gd79-12-05d1t08.flac:63ac1f9093c8f1aba6e1d2b71815d859
gd79-12-05d1t09.flac:fc0ba6daa02b2d7c4ece16c2439b33da
gd79-12-05d1t10.flac:c7ab41e5e714ad3e31f45f1cdacd1750
gd79-12-05d1t11.flac:3cd7f40bce06c91860db3870f95bd4e4
gd79-12-05d2t01.flac:bb83da61f11dbb11dcd014d342368005
gd79-12-05d2t02.flac:b71b093fe23f81f89524c5c7f5897db1
gd79-12-05d2t03.flac:5d0ba3c6c80ec3c167a9a39f47ae78fe
gd79-12-05d2t04.flac:bdf5c8aaee619991b5c962cd78ca9572
gd79-12-05d2t05.flac:15af8865c566768ee2e455c79a431fef
gd79-12-05d2t06.flac:2f2c463866d3c88a49d2be4876eed6ba
gd79-12-05d2t07.flac:c6f80e5ec0e9679b4e60f88223105984
gd79-12-05d3t01.flac:ec7d27edb67dfbfa8c61d51b3994a60f
gd79-12-05d3t02.flac:19a7258cc5d6ae0aefd95ba0349453f0
gd79-12-05d3t03.flac:aaee980d3976191ac54c362de0456c22
gd79-12-05d3t04.flac:1ba4fc1a7ac2cb524b72993fd06a3332
gd79-12-05d3t05.flac:9cb5d46ce852f523ec647e4fdf420722
gd79-12-05d3t06.flac:6b660be7fbd5f6f984022290f38eab32
gd79-12-05d3t07.flac:e396fb2471242440ca3724784f0bc376

Comments
Add Comment
Other Sources (comments)
2nd set minus ship of fools... (1) MAC (Unknown equipment) >... (1) flac16; SBD (set 2... (5) flac16; composite of... (0) flac16; Recording by... (0) flac16; Recording... (0) flac16; Recorded By... (0)
Date User Comment