Browse Collections Artists Sources   Search Dates

Add Show    List Management    Help


Grateful Dead 09/27/81
Capital Centre, Landover, MD
Comments Add Comment    Source Collectors    Add to Collection    Add to Want List    History
Source # 112343 Other Sources
Entered by Matt Vernon
Checksums ffp , flac-md5
Disc Counts 1 / 1
Media Size
Date Circulated
Date Added
03/12/2011
03/12/2011
Source Summary flac16; Set 1 Source: AUD (unknown equipment) MAC > 2nd Gen cassette. Transfer: Maxell UDXLII > Nakamichi CR5A > Edirol FA-66 > Wavelab > R8Brain > CD-Wave > TLH > FLAC 1644 Tagged. 
  Archive
Source Information - Download Text | Download Zip
GRATEFUL DEAD
Capital Centre
Landover MD
09-27-1981
First Set

s1t01 Jack Straw
s1t02 Alabama Getaway >
s1t03 Promised Land
s1t04 Candyman
s1t05 Little Red Rooster
s1t06 Althea
s1t07 Me & My Uncle >
s1t08 Mexicali Blues
s1t09 It Must Have Been the Roses
s1t10 Lost Sailor >
s1t11 Saint of Circumstance

Source: AUD (unknown equipment) MAC > 2nd Gen cassette.

Transfer: Maxell UDXLII > Nakamichi CR5A > Edirol FA-66 >
Wavelab > R8Brain > CD-Wave > TLH > FLAC 1644 Tagged.

    length     expanded size    cdr  WAVE problems  fmt   ratio  filename
     5:38.34       59703212 B   ---   --   ---xx   flac  0.5570  gd1981-09-27s1t01.flac
     4:49.06       50993756 B   ---   --   ---xx   flac  0.5600  gd1981-09-27s1t02.flac
     4:13.59       44768012 B   ---   --   ---xx   flac  0.5691  gd1981-09-27s1t03.flac
     6:44.11       71291516 B   ---   --   ---xx   flac  0.5150  gd1981-09-27s1t04.flac
     8:07.44       86010332 B   ---   --   ---xx   flac  0.5612  gd1981-09-27s1t05.flac
     7:55.24       83846492 B   ---   --   ---xx   flac  0.5541  gd1981-09-27s1t06.flac
     3:09.44       33443132 B   ---   --   ---xx   flac  0.5839  gd1981-09-27s1t07.flac
     4:27.42       47197628 B   ---   --   ---xx   flac  0.5812  gd1981-09-27s1t08.flac
     5:34.01       58919996 B   ---   --   ---xx   flac  0.5499  gd1981-09-27s1t09.flac
     7:11.72       76197788 B   ---   --   ---xx   flac  0.5523  gd1981-09-27s1t10.flac
     7:04.68       74953580 B   ---   --   ---xx   flac  0.5562  gd1981-09-27s1t11.flac
    64:56.30      687325444 B                            0.5556  (11 files)

No errors occured.
Show Checksums
ffp
gd1981-09-27s1t01.flac:09aaaf9820b806abe6350e9438799bb6
gd1981-09-27s1t02.flac:c88a84f67928cfbf4e7bf98bac097aed
gd1981-09-27s1t03.flac:9dff50f2dcec2ee5eb20c6d9e66ea7f8
gd1981-09-27s1t04.flac:eacc52b1bb5de1e3931f803d11529808
gd1981-09-27s1t05.flac:4e7677726cd5c266ca61f6cee2cd5ad0
gd1981-09-27s1t06.flac:fc1486c1cc7f4c7f739d024268d27349
gd1981-09-27s1t07.flac:0a8dd270d607d17808530ae16fdd0a8e
gd1981-09-27s1t08.flac:f9eb3705b34ab8db5f257ee070a569d1
gd1981-09-27s1t09.flac:6e667cb01960a17645866f6530c7e4d8
gd1981-09-27s1t10.flac:d9f684c6c49f780c5dc5f4cc5201edf0
gd1981-09-27s1t11.flac:8404023d703aba16ddbb7ed298cd6517
flac-md5
a2709241adc824bbe87af87e0e5bfcc3 *gd1981-09-27s1t01.flac
71598912e60d06e587e434f7fee0d5ce *gd1981-09-27s1t02.flac
0df20cd3ce6203d60c944f7b6cce11ba *gd1981-09-27s1t03.flac
fa9c3647f683fd13bc04f6fe98181ce0 *gd1981-09-27s1t04.flac
295fee4de5ff287b79b60eabdb88ff9a *gd1981-09-27s1t05.flac
d150f7a2c2b30ee8c14dc971ac12fc5d *gd1981-09-27s1t06.flac
d24d0eae503d1f71462ba7225d04b1a0 *gd1981-09-27s1t07.flac
62a48e83d21185656b58a40f3c0b817d *gd1981-09-27s1t08.flac
ad2facace2f924aaa9f90b07a26bb74e *gd1981-09-27s1t09.flac
9e4df92afe624955765a5542e516776b *gd1981-09-27s1t10.flac
87512f62611f9097b604853174702f80 *gd1981-09-27s1t11.flac

Comments
Add Comment
Other Sources (comments)
SBD>Cm>PCM>Dat>CD; via... (0) flac16; Set 2... (0) 2 Nakamichi 300's (taped to... (0) flac16; Recording... (0)
Date User Comment