Browse Collections Artists Sources   Search Dates

Add Show    List Management    Help


Grateful Dead 08/15/87
Town Park, Telluride, CO
Comments Add Comment    Source Collectors    Add to Collection    Add to Want List    History
Source # 112718 Other Sources
Entered by Matt Vernon
Checksums ffp , flac-md5
Disc Counts 0 / 0
Media Size
Date Circulated
Date Added
04/03/2011
04/03/2011
Source Summary flac24; Source: Nakamichi CM-300/CP-4 shotguns > Marantz PMD-420 > Maxell XLII-S 90's, taped from the OTS by Jon Pasternak. Transfer: MAC > Nakamichi CR-5A > Edirol FA-66 > Wavelab > CD-Wave > TLH > FLAC 2448. Transfer by Andrew F. 04/2011 
  Archive
Source Information - Download Text | Download Zip
GRATEFUL DEAD
Town Park
Telluride CO
08-15-1987

24bit/48kHz file-set

s1t01 crowd & tuning
s1t02 Feel Like a Stranger >
s1t03 Franklin's Tower
s1t04 Minglewood Blues
s1t05 Candyman
s1t06 Me & My Uncle >
s1t07 Big River
s1t08 equipment break
s1t09 Tennessee Jed
s1t10 Desolation Row >
s1t11 Deal

s2t01 Scarlet Begonias >
s2t02 Fire on the Mountain
s2t03 Looks Like Rain
s2t04 Eyes of the World >
s2t05 Drums >
s2t06 Space >
s2t07 I Need a Miracle >
s2t08 Bertha >
s2t09 Morning Dew >
s2t10 One More Saturday Night
s2t11 Encore: It's All Over Now Baby Blue

Source: Nakamichi CM-300/CP-4 shotguns > Marantz PMD-420 >
Maxell XLII-S 90's, taped from the OTS by Jon Pasternak.

Transfer: MAC > Nakamichi CR-5A > Edirol FA-66 > Wavelab >
CD-Wave > TLH > FLAC 2448. Transfer by Andrew F. 04/2011

Notes: Upsampled patch from ID-82167, Space 2:28 > 2:41.
Caveat...Special guest heard thru-out the show: The Wind.

    length     expanded size    cdr  WAVE problems  fmt   ratio  filename
     1:20.893      23297324 B   cxx   --   ---xx   flac  0.6426  gd1987-08-15s1t01.flac
     6:43.920     116329004 B   cxx   --   ---xx   flac  0.7161  gd1987-08-15s1t02.flac
     6:24.467     110726444 B   cxx   --   ---xx   flac  0.7129  gd1987-08-15s1t03.flac
     7:56.067     137107244 B   cxx   --   ---xx   flac  0.7124  gd1987-08-15s1t04.flac
     7:26.400     128563244 B   cxx   --   ---xx   flac  0.6948  gd1987-08-15s1t05.flac
     3:07.653      54044204 B   cxx   --   ---xx   flac  0.7177  gd1987-08-15s1t06.flac
     4:59.413      86231084 B   cxx   --   ---xx   flac  0.7187  gd1987-08-15s1t07.flac
     1:33.575      26949638 B   cxx   --   ---xx   flac  0.6407  gd1987-08-15s1t08.flac
     8:38.280     149264684 B   cxx   --   ---xx   flac  0.7103  gd1987-08-15s1t09.flac
    10:09.400     175507244 B   cxx   --   ---xx   flac  0.7153  gd1987-08-15s1t10.flac
     6:11.225     106912964 B   cxx   --   ---xx   flac  0.7174  gd1987-08-15s1t11.flac
     7:44.400     133747244 B   cxx   --   ---xx   flac  0.7145  gd1987-08-15s2t01.flac
     9:12.440     159102764 B   cxx   --   ---xx   flac  0.7151  gd1987-08-15s2t02.flac
     8:45.653     151388204 B   cxx   --   ---xx   flac  0.6897  gd1987-08-15s2t03.flac
     8:47.787     152002604 B   cxx   --   ---xx   flac  0.7151  gd1987-08-15s2t04.flac
     9:34.600     165484844 B   cxx   --   ---xx   flac  0.6841  gd1987-08-15s2t05.flac
     7:28.505     129169598 B   cxx   --   ---xx   flac  0.6559  gd1987-08-15s2t06.flac
     4:31.027      78055724 B   cxx   --   ---xx   flac  0.7293  gd1987-08-15s2t07.flac
     6:20.267     109516844 B   cxx   --   ---xx   flac  0.7321  gd1987-08-15s2t08.flac
    11:10.507     193105964 B   cxx   --   ---xx   flac  0.6995  gd1987-08-15s2t09.flac
     4:52.520      84245804 B   cxx   --   ---xx   flac  0.7362  gd1987-08-15s2t10.flac
     7:04.476     122249216 B   cxx   --   ---xx   flac  0.7062  gd1987-08-15s2t11.flac
   150:03.475    2593001888 B                            0.7063  (22 files)

No errors occured.
Show Checksums
ffp
gd1987-08-15s1t01.flac:a648731f49b95089a7b461996fb54a03
gd1987-08-15s1t02.flac:f05f5e7e475ace32e271cb39c85657a2
gd1987-08-15s1t03.flac:65d3535f08d7673876aec0999bd46791
gd1987-08-15s1t04.flac:3de14dfe31e35aa4272d2f00ee03d0cf
gd1987-08-15s1t05.flac:acfb40fb09639a8d43983a0752dda707
gd1987-08-15s1t06.flac:fb68f3d8402f2a788a915618a0fb5653
gd1987-08-15s1t07.flac:cc6fb83a91c7be6cfbd4141fd1d0db2b
gd1987-08-15s1t08.flac:b84d2df072ce85e44b7cfed044d632c0
gd1987-08-15s1t09.flac:d3ae28fae7ab79d82481f3973f845b1d
gd1987-08-15s1t10.flac:12e1f8edf8b5b3ca944d94c19171e427
gd1987-08-15s1t11.flac:b2e144b6230c882da31fe348893aeaac
gd1987-08-15s2t01.flac:033c5e1695544bd597522bef205a5be4
gd1987-08-15s2t02.flac:df0fc24c861dc095ea17135a0e657543
gd1987-08-15s2t03.flac:0002d4d88edce2d65f4a1ea2591c2e95
gd1987-08-15s2t04.flac:c62d45705320acb11a11415954a2c65d
gd1987-08-15s2t05.flac:d44f4ab35ac2e8c25695714d7e8d08e9
gd1987-08-15s2t06.flac:2d6a73e5187c6f3614c1bdb7731abe13
gd1987-08-15s2t07.flac:23641b44cf02a6703b81c9f11b662ada
gd1987-08-15s2t08.flac:323507d08d765bf801d56d42d2959e1e
gd1987-08-15s2t09.flac:6f26ffdaf3fb5e68ff69d41be3afe54f
gd1987-08-15s2t10.flac:b2a359a5b4ff1c105833e1064a6a381f
gd1987-08-15s2t11.flac:21cf94a3f71150c09135d1e09e3f8c43
flac-md5
a0f025bd75140d542162595608ddccff *gd1987-08-15s1t01.flac
9f2ff5ffc107b876fe2318306f26bbf2 *gd1987-08-15s1t02.flac
a85606ec521200ab07bd0688e87ae950 *gd1987-08-15s1t03.flac
96ca077b26cd3d0f9619f29989788c57 *gd1987-08-15s1t04.flac
d613e310210c4fdbaeab2c431d12c6aa *gd1987-08-15s1t05.flac
5c0b420e9d1af48f9bf273ae25cbc5c8 *gd1987-08-15s1t06.flac
ab7cecbf23eb8ead0392a3426262a3e2 *gd1987-08-15s1t07.flac
513f2e51241233fb04434081de402a9e *gd1987-08-15s1t08.flac
e4cf4f32f40f8f7eaa1e24884cd65cb6 *gd1987-08-15s1t09.flac
d8c0d459773cdf8d3fac7f34982c25ae *gd1987-08-15s1t10.flac
24990c44a92c28800752dd249c746cd1 *gd1987-08-15s1t11.flac
091c93a93ff2687817c9c5a5ccb3a0b7 *gd1987-08-15s2t01.flac
abc2236886e8b10a25b66c3d8231d1aa *gd1987-08-15s2t02.flac
3ecec3304c177be8e32f5f696a2366f0 *gd1987-08-15s2t03.flac
30128a39209267970f5719129f339be2 *gd1987-08-15s2t04.flac
d489e717462a2d225af89925b18a39cf *gd1987-08-15s2t05.flac
7045b036e620007ebb7e69e59b3bc5ab *gd1987-08-15s2t06.flac
c003d4fe9b752d40f9e2a038be78098a *gd1987-08-15s2t07.flac
62487f7dff997cd081cbc159acf09ece *gd1987-08-15s2t08.flac
e68ed502f5bf329dc86b9e2103a03ccb *gd1987-08-15s2t09.flac
b83010ed056027518b4e6d75f2a761ae *gd1987-08-15s2t10.flac
22d78dd6bbe008508619183862925bc0 *gd1987-08-15s2t11.flac

Comments
Add Comment
Other Sources (comments)
FOB > PCM > DAT > CD;... (0) PreFM SBD(Healy... (1) flac16; Patch fix of... (2) flac16; Source:... (0) flac16; Recording... (0) flac16; Source Info:... (0)
Date User Comment