Browse Collections Artists Sources   Search Dates

Add Show    List Management    Help


Allman Brothers Band 09/01/06
Red Rocks Amphitheatre, Morrison, CO
Comments Add Comment    Source Collectors    Add to Collection    Add to Want List    History
Source # 112988 Other Sources
Entered by
Checksums ffp , flac-md5 , wav-md5 , st5
Disc Counts 2 / 2
Media Size
Date Circulated
Date Added
04/22/2011
04/22/2011
Source Summary Schoeps mk2s (split 5-6 feet) > kc5> cmc6 > oade m118 > apogee minime > tascam DAP1
Lineage: DAT > (?) > CDR > EAC > TLH > Flac16 (level 6 )
Taped By: Scaggs
EAC By: ekoostikal 
Source Information - Download Text | Download Zip
The Allman Brothers Band
2006-09-01
Red Rocks Amphitheatre
Morrison, CO


Source: Schoeps mk2s (split 5-6 feet) > kc5> cmc6 > oade m118 > apogee minime > tascam DAP1
Lineage: DAT > (?) > CDR > EAC > TLH > Flac16 (level 6 )
Taped By: Scaggs
EAC By: ekoostikal


One Set:
Disc I:
01. Crowd/Tuning
02. Don't Want You No More >
03. Not My Cross To Bear >
04. Southbound
05. Revival
06. Who's Been Talkin'
07. Trouble No More
08. Midnight Rider (w/Devon Allman)
09. Anyday (w/James van der Bogert)
10. The Same Thing
11. Hot 'Lanta

Disc II:
01. I Walk On Gilded Splinters
02. Statesboro Blues
03. Dreams
04. The Weight (w/Danny Louis & Andy Hess)
05. In Memory of Elizabeth Reed > JaMaBuBu > In Memory of Elizabeth Reed
Encore:
06. One Way Out


shntool:
length     expanded size    cdr  WAVE problems  fmt   ratio  filename
     2:14.70       23802284 B   ---   --   ---xx  abb2006-09-01.mk2.d1t01.flac
     2:37.11       27720716 B   ---   --   ---xx  abb2006-09-01.mk2.d1t02.flac
     4:59.62       52889468 B   ---   --   ---xx  abb2006-09-01.mk2.d1t03.flac
     5:14.53       55514300 B   ---   --   ---xx  abb2006-09-01.mk2.d1t04.flac
    10:06.67      107056028 B   ---   --   ---xx  abb2006-09-01.mk2.d1t05.flac
     9:02.48       95721740 B   ---   --   ---xx  abb2006-09-01.mk2.d1t06.flac
     4:54.24       51918092 B   ---   --   ---xx  abb2006-09-01.mk2.d1t07.flac
     4:33.29       48225452 B   ---   --   ---xx  abb2006-09-01.mk2.d1t08.flac
     9:07.48       96603740 B   ---   --   ---xx  abb2006-09-01.mk2.d1t09.flac
    10:15.51      108605996 B   ---   --   ---xx  abb2006-09-01.mk2.d1t10.flac
     4:59.19       52788332 B   ---   --   ---xx  abb2006-09-01.mk2.d1t11.flac
     6:02.49       63972092 B   ---   --   ---xx  abb2006-09-01.mk2.d2t01.flac
     6:00.34       63584012 B   ---   --   ---xx  abb2006-09-01.mk2.d2t02.flac
    12:02.03      127367900 B   ---   --   ---xx  abb2006-09-01.mk2.d2t03.flac
    10:27.05      110614604 B   ---   --   ---xx  abb2006-09-01.mk2.d2t04.flac
    37:05.34      392570012 B   ---   --   ---xx  abb2006-09-01.mk2.d2t05.flac
     6:25.29       67982252 B   ---   --   ---xx  abb2006-09-01.mk2.d2t06.flac
   146:09.36     1546937020 B                            0.5135  (17 files)
Show Checksums
ffp
abb2006-09-01.mk2.d1t01.flac:6416b32e932800f50d87878feb5b56d9
abb2006-09-01.mk2.d1t02.flac:c3dbe26f6f6b003350ba903d6c0c7da8
abb2006-09-01.mk2.d1t03.flac:cf73a751b9a1d51219cc540b769f3bb2
abb2006-09-01.mk2.d1t04.flac:8bfd57dfbbaa59b7d45a728a87af0ea0
abb2006-09-01.mk2.d1t05.flac:6f554c57545dab8fed2e1f61fb54f77a
abb2006-09-01.mk2.d1t06.flac:d60b8ab007fbed47b689df6f4e509360
abb2006-09-01.mk2.d1t07.flac:6e0cd6676f1b70f296bc184607c4d561
abb2006-09-01.mk2.d1t08.flac:c4d82cd940f4d37a20bc33b853db4627
abb2006-09-01.mk2.d1t09.flac:297d9acfd2172069980c923570eed72c
abb2006-09-01.mk2.d1t10.flac:91df48180616ed662d177218d71ebe54
abb2006-09-01.mk2.d1t11.flac:a926d0a521fb3324eaba75b297ddb256
abb2006-09-01.mk2.d2t01.flac:cbb33de74f13d15fc0d6abafcffee96e
abb2006-09-01.mk2.d2t02.flac:fea3b7044240558e2fbd84c41d4f7b46
abb2006-09-01.mk2.d2t03.flac:9b085253e317b3c7965db4ac29dfb6e9
abb2006-09-01.mk2.d2t04.flac:f4b882b064bfdde8d67ea97986908c48
abb2006-09-01.mk2.d2t05.flac:e03dd982261c0848eb5e25a0fa328a11
abb2006-09-01.mk2.d2t06.flac:57ce20131e4ad2939fe3e1394f223111
flac-md5
98c4eba40d29d6375e49ebbe847d7190 *abb2006-09-01.mk2.d1t01.flac
0a781a9573324b188b8621fa3f073290 *abb2006-09-01.mk2.d1t02.flac
ae6ffca27f43ce3dd43464f5c32362fb *abb2006-09-01.mk2.d1t03.flac
dfd4605eb168e798514651128411fc47 *abb2006-09-01.mk2.d1t04.flac
00eb60474fc0aa382bd97687a73719b4 *abb2006-09-01.mk2.d1t05.flac
81c48fb5e92d505009798ecfc0eb76c3 *abb2006-09-01.mk2.d1t06.flac
56ddca40b12f253fdc5232ba2ece7962 *abb2006-09-01.mk2.d1t07.flac
6328d97d82e8522943c7621a17bb6063 *abb2006-09-01.mk2.d1t08.flac
f73fa2bedf374620dd43689392ec52e0 *abb2006-09-01.mk2.d1t09.flac
4448cde3add4dba0c1739487a4e8dabb *abb2006-09-01.mk2.d1t10.flac
d4728b002bfaeb309b4e752d52c7e166 *abb2006-09-01.mk2.d1t11.flac
9589c22830338162381b41772d557fa4 *abb2006-09-01.mk2.d2t01.flac
5382b06f64005917f6f8144bee2b99c9 *abb2006-09-01.mk2.d2t02.flac
3c8de09b6ac16fdb3c59efc83fefd1ef *abb2006-09-01.mk2.d2t03.flac
25d2845210610b13ac9585912d9cdbb8 *abb2006-09-01.mk2.d2t04.flac
35e46f332727749d0fa361be050493ce *abb2006-09-01.mk2.d2t05.flac
1a77c446cea42edf5c4e47b6e327ccc0 *abb2006-09-01.mk2.d2t06.flac
wav-md5
3da284a4645e311ab65ac7581882350b *abb2006-09-01.mk2.d1t01.wav
b8c52ede182738111d1c0631178f5065 *abb2006-09-01.mk2.d1t02.wav
b1277f5b9069e5fa42aa8663ae4bd816 *abb2006-09-01.mk2.d1t03.wav
bee404f6130a08ac1c5861d8a918ab61 *abb2006-09-01.mk2.d1t04.wav
49cfe7f66315c7a3732f690ed6f64199 *abb2006-09-01.mk2.d1t05.wav
443720ba78a707cc4ec4e569012d7abd *abb2006-09-01.mk2.d1t06.wav
dc55391e41beebaf1cff76d04191122b *abb2006-09-01.mk2.d1t07.wav
57d6e22028c4b6d320893f5f7accdd4c *abb2006-09-01.mk2.d1t08.wav
7e0f404fba1b8b4ad3270fb89012811e *abb2006-09-01.mk2.d1t09.wav
81982d1f8da43b8458ca0caa659dcd43 *abb2006-09-01.mk2.d1t10.wav
b47b212f344f4e7fe0517ab3d7ff04eb *abb2006-09-01.mk2.d1t11.wav
1c5b2a8f018023e22e06c78258ea9b54 *abb2006-09-01.mk2.d2t01.wav
69da125a6a386209fba0dc988f5d9fc2 *abb2006-09-01.mk2.d2t02.wav
a2b3d254538377290b8470b77312cca3 *abb2006-09-01.mk2.d2t03.wav
9078d9b05bb1da2e227e31d3a7c40d36 *abb2006-09-01.mk2.d2t04.wav
caa0b715444f88d7965033b74b2af229 *abb2006-09-01.mk2.d2t05.wav
8794067b1f8ce5b9d4f204ea6495bb7f *abb2006-09-01.mk2.d2t06.wav
st5
6416b32e932800f50d87878feb5b56d9 [shntool] abb2006-09-01.mk2.d1t01.flac
c3dbe26f6f6b003350ba903d6c0c7da8 [shntool] abb2006-09-01.mk2.d1t02.flac
cf73a751b9a1d51219cc540b769f3bb2 [shntool] abb2006-09-01.mk2.d1t03.flac
8bfd57dfbbaa59b7d45a728a87af0ea0 [shntool] abb2006-09-01.mk2.d1t04.flac
6f554c57545dab8fed2e1f61fb54f77a [shntool] abb2006-09-01.mk2.d1t05.flac
d60b8ab007fbed47b689df6f4e509360 [shntool] abb2006-09-01.mk2.d1t06.flac
6e0cd6676f1b70f296bc184607c4d561 [shntool] abb2006-09-01.mk2.d1t07.flac
c4d82cd940f4d37a20bc33b853db4627 [shntool] abb2006-09-01.mk2.d1t08.flac
297d9acfd2172069980c923570eed72c [shntool] abb2006-09-01.mk2.d1t09.flac
91df48180616ed662d177218d71ebe54 [shntool] abb2006-09-01.mk2.d1t10.flac
a926d0a521fb3324eaba75b297ddb256 [shntool] abb2006-09-01.mk2.d1t11.flac
cbb33de74f13d15fc0d6abafcffee96e [shntool] abb2006-09-01.mk2.d2t01.flac
fea3b7044240558e2fbd84c41d4f7b46 [shntool] abb2006-09-01.mk2.d2t02.flac
9b085253e317b3c7965db4ac29dfb6e9 [shntool] abb2006-09-01.mk2.d2t03.flac
f4b882b064bfdde8d67ea97986908c48 [shntool] abb2006-09-01.mk2.d2t04.flac
e03dd982261c0848eb5e25a0fa328a11 [shntool] abb2006-09-01.mk2.d2t05.flac
57ce20131e4ad2939fe3e1394f223111 [shntool] abb2006-09-01.mk2.d2t06.flac

Comments
Add Comment
Other Sources (comments)
Source: Schoeps MK4V's> KCY... (0)
Date User Comment