Browse Collections Artists Sources   Search Dates

Add Show    List Management    Help


Grateful Dead 03/13/81
Utica Memorial Auditorium, Utica, NY
Comments Add Comment    Source Collectors    Add to Collection    Add to Want List    History
Source # 113101 Other Sources
Entered by Matt Vernon
Checksums ffp , flac-md5
Disc Counts 1 / 1
Media Size
Date Circulated
Date Added
04/29/2011
04/29/2011
Source Summary flac16; Partial Set 1, Recording Info: SBD -> Cassette Master -> Reel -> Dat (48k); Transfer Info: Dat (Sony R500) -> Apogee Ensemble -> Peak -> AIFF; Mastering Info: AIFF -> Samplitude Professional v11.2 -> FLAC; Mastered By Charlie Miller; Upgrade of Shn ID 112659 
  Archive
Source Information - Download Text | Download Zip
Grateful Dead - March 13, 1981
Memorial Auditoirum - Utica, NY

Recording Info:
SBD -> Cassette Master -> Reel -> Dat (48k)

Transfer Info:
Dat (Sony R500) -> Apogee Ensemble -> Peak -> AIFF

Mastering Info:
AIFF -> Samplitude Professional v11.2 -> Adobe Auditon v1.5 -> FLAC
(1 Disc Audio / 1 Disc FLAC)

Dat Supplied By Rob Eaton
Transferred By Digitalrbb
Mastered By Charlie Miller
[email protected]
April 27, 2011

Notes:
-- Only half the set was on the Dat
-- Thanks to Joe B. Jones for helping with the pitch correction

Set 1:
d1t01 - Shakedown Street
d1t02 - Minglewood Blues
d1t03 - Cassidy ->
d1t04 - Althea
d1t05 - The Music Never Stopped


SHNTOOL OUTPUT:
    length     expanded size   cdr  WAVE problems filename
    13:31.07      143076908    ---   --   ---xx   gd81-03-13d1t01.flac
     7:28.45       79133084    ---   --   ---xx   gd81-03-13d1t02.flac
     5:56.49       62913692    ---   --   ---xx   gd81-03-13d1t03.flac
     8:53.01       94023596    ---   --   ---xx   gd81-03-13d1t04.flac
     9:05.39       96229772    ---   --   ---xx   gd81-03-13d1t05.flac
    44:54.66      475377052 B                     (totals for 5 files)
Show Checksums
ffp
gd81-03-13d1t01.flac:484cfd9fa70999f09a26fb8239bcb022
gd81-03-13d1t02.flac:98ea750c5cace029c8bc90dc52cc4da8
gd81-03-13d1t03.flac:de5e7ed757563f4895330973f67d13e5
gd81-03-13d1t04.flac:acc2571fd2fca18077608db0fe89c6cb
gd81-03-13d1t05.flac:f37431d225337b119ae2ebf72c987d03
flac-md5
e37a26078f513dd5671a2572d23f9ce1 *gd81-03-13d1t01.flac
03419732202a8584f3df77efb6e9c847 *gd81-03-13d1t02.flac
ea39d0120a228ed87a2a96203a9e471a *gd81-03-13d1t03.flac
c92e66f3631e23fe21b50b4db4d19d11 *gd81-03-13d1t04.flac
15b6f1d94e9a0942b654f2823a6fe939 *gd81-03-13d1t05.flac

Comments
Add Comment
Other Sources (comments)
Recording by Jim Wise:... (0) flac16; Second Set... (0) flac16; Recorded by... (0) flac16; Recording... (0) flac16; Recorded by... (0) flac16; Partial Set... (1) flac16/48kHz;... (0) flac24; Cassette... (0) flac24; Source: AKG... (0)
Date User Comment