Browse Collections Artists Sources   Search Dates

Add Show    List Management    Help


Zero 08/10/96
Big Boulder Ski Area, Lake Harmony, PA
Comments Add Comment    Source Collectors    Add to Collection    Add to Want List    History
Source # 113308 Other Sources
Entered by ziko
Checksums md5 , ffp
Disc Counts 1 / 1
Media Size
Date Circulated
Date Added
06/05/2008
05/04/2011
Source Summary matrix sources: 1) SBD > Sony D8 (Dat Master SBD) FOH by Dan Temper Recorded and transferred by Ron Keyser Master DAT played in Sony D8 > M-AUDIO Audiophile USB via SPDIF > Sound Forge V7.0 > Sony VAIO PCV-RS410 > Resampled to 44.1kHz > CD Wave Editor > WAV > FLAC 2) Recorded by Ron & Julia Keyser with the AMS ST250 about 15 Feet From Stage (Hypers @ 90 degrees) > into the AMS Control Box > Modified Sony D10 Pro II Transfer by Ron Keyser Playing Master DAT in Sony D8 > M-AUDIO Audiophile USB via SPDIF > Sound Forge V7.0 > Sony VAIO PCV-RS410 > Resampled to 44.1kHz > CD Wave Editor > WAV > FLAC 
Source Information - Download Text | Download Zip
Zero
1st Annual Gathering On The Mountain
Big Boulder Ski Area,
Lake Harmony, PA
08/10/1996

matrix sources:

1) SBD > Sony D8 (Dat Master SBD)
     FOH by Dan Temper
     Recorded and transferred by Ron Keyser
     Master DAT played in Sony D8 > M-AUDIO Audiophile USB via SPDIF > Sound Forge V7.0 >
     Sony VAIO PCV-RS410 > Resampled to 44.1kHz > CD Wave Editor > WAV > FLAC


2) Recorded by Ron & Julia Keyser with the AMS ST250 about 15 Feet From Stage (Hypers @ 90 degrees) >
     into the AMS Control Box > Modified Sony D10 Pro II
     Transfer by Ron Keyser Playing Master DAT in Sony D8 > M-AUDIO Audiophile USB via SPDIF > Sound Forge V7.0 >
     Sony VAIO PCV-RS410 > Resampled to 44.1kHz > CD Wave Editor > WAV > FLAC


01   tuning/intro
02   Golden Road
03   tuning
04   Catalina
05   tuning
06   Tear Tags Off Mattresses
07   Pits Of Thunder
08   tuning
09   Chance In A Million
10   Mercury Blues

matrixed by
SIRMick
May 2008


shntool output:

    length     expanded size   cdr  WAVE problems filename
     3:40.47       38918588    ---   --   ---xx   zero1996-08-10t01.flac
    12:05.59      128028812    ---   --   ---xx   zero1996-08-10t02.flac
     1:36.65       17087324    ---   --   ---xx   zero1996-08-10t03.flac
     8:58.59       95042012    ---   --   ---xx   zero1996-08-10t04.flac
     1:09.65       12324524    ---   --   ---xx   zero1996-08-10t05.flac
    13:53.16      146978876    ---   --   ---xx   zero1996-08-10t06.flac
    11:01.67      116758028    ---   --   ---xx   zero1996-08-10t07.flac
     1:57.05       20650604    ---   --   ---xx   zero1996-08-10t08.flac
     9:31.19      100769132    ---   --   ---xx   zero1996-08-10t09.flac
     6:51.04       72509852    ---   --   ---xx   zero1996-08-10t10.flac
    70:46.31      749067752 B                     (totals for 10 files, 0.5338 overall compression ratio)


flac fingerprints;

zero1996-08-10t01.flac:2861cedffcbe8324906def260da5ac04
zero1996-08-10t02.flac:7c84b3b9b251195438ee1ad04e6a6ee7
zero1996-08-10t03.flac:8328e1feec49dff75f5546b7cf91023e
zero1996-08-10t04.flac:24d9ddec4953d355895f52371895b05b
zero1996-08-10t05.flac:2ecaefb16ae728cad30b19454d2fdccd
zero1996-08-10t06.flac:6701e31488b9251ca8d0a6510025377f
zero1996-08-10t07.flac:6b0469452065034cb743a68998aba58f
zero1996-08-10t08.flac:98ac575f604dc4a97a146dc286be916a
zero1996-08-10t09.flac:c23e85e065b6c06ff303f60069ef4749
zero1996-08-10t10.flac:d616474250e293142a91f18f5cb94547
Show Checksums
md5
21b470acad7776ff33df666be9da391d *zero1996-08-10t01.flac
3cdd40cc575e156cedc857ae772c0244 *zero1996-08-10t02.flac
7cc9c51f4579c9f2fe52642f394e5007 *zero1996-08-10t03.flac
2a1805520a236c4e396d57a0114544a9 *zero1996-08-10t04.flac
fe1853492e295f15c93a463d6e04aba6 *zero1996-08-10t05.flac
4b0122c56feddc69f06b50839a18bf07 *zero1996-08-10t06.flac
dbf9d970a815a0dc93ebb2e42c102d3e *zero1996-08-10t07.flac
e407918a9619fbae045330d069c5ee38 *zero1996-08-10t08.flac
11af661e77fc906d1d7fb89e43b0985a *zero1996-08-10t09.flac
0a40ff5bd70252986c391ac17ff6bba1 *zero1996-08-10t10.flac
ffp
zero1996-08-10t01.flac:2861cedffcbe8324906def260da5ac04
zero1996-08-10t02.flac:7c84b3b9b251195438ee1ad04e6a6ee7
zero1996-08-10t03.flac:8328e1feec49dff75f5546b7cf91023e
zero1996-08-10t04.flac:24d9ddec4953d355895f52371895b05b
zero1996-08-10t05.flac:2ecaefb16ae728cad30b19454d2fdccd
zero1996-08-10t06.flac:6701e31488b9251ca8d0a6510025377f
zero1996-08-10t07.flac:6b0469452065034cb743a68998aba58f
zero1996-08-10t08.flac:98ac575f604dc4a97a146dc286be916a
zero1996-08-10t09.flac:c23e85e065b6c06ff303f60069ef4749
zero1996-08-10t10.flac:d616474250e293142a91f18f5cb94547

Comments
Add Comment
Other Sources (comments)
SBD> Sony D8 (Dat Master SBD) (0)
Date User Comment