Browse Collections Artists Sources   Search Dates

Add Show    List Management    Help


Grateful Dead 03/20/81
Rainbow Theater, London, England
Comments Add Comment    Source Collectors    Add to Collection    Add to Want List    History
Source # 113433 Other Sources
Entered by Matt Vernon
Checksums ffp , flac-md5
Disc Counts 1 / 1
Media Size
Date Circulated
Date Added
05/08/2011
05/07/2011
Source Summary flac16: Soundcheck Source: AUD cassette (Unknown equipment & lineage). Tape kindly provided by Seaweed1010. Transfer: Maxell XLIIS > Nakamichi CR-5A > Edirol FA-66 > Wavelab > CD-Wave > TLH > FLAC 1644 Tagged, May 2011. 
  Archive
Source Information - Download Text | Download Zip
GRATEFUL DEAD
Rainbow Theater
London UK
03-20-1981

Soundcheck

01 tuning
02 Women Are Smarter - first try
03 Women Are Smarter - second try
04 Women Are Smarter - proto version
05 Althea - complete song
06 tuning
07 Lost Sailor - end of song
08 Sailor Saint transition - first try
09 Sailor Saint transition - second try
10 Jerry riffs
11 taper comments

Source: AUD cassette (Unknown equipment & lineage).
Tape kindly provided by Seaweed1010.

Transfer: Maxell XLIIS > Nakamichi CR-5A > Edirol FA-66 >
Wavelab > CD-Wave > TLH > FLAC 1644 Tagged, May 2011.

dc6be53fd4014a3963842d323819b35b *gd1981-03-20.sndchk.t01.flac
09608b53058862225d6931acabd83647 *gd1981-03-20.sndchk.t02.flac
41f538e03bf17370bfcce29d734eb14d *gd1981-03-20.sndchk.t03.flac
09af865236d4f66deac8d188779ead30 *gd1981-03-20.sndchk.t04.flac
050fc3a6fd22256f4405483f7f018471 *gd1981-03-20.sndchk.t05.flac
91ea4d9a73b153c63db20c0663cb1038 *gd1981-03-20.sndchk.t06.flac
b9ef674e80ca55e3658a576ba1209eaf *gd1981-03-20.sndchk.t07.flac
8739b935d078b10e8c57fbddd8fb2c86 *gd1981-03-20.sndchk.t08.flac
53eac21fa4cfb43e9786da996ed2cfeb *gd1981-03-20.sndchk.t09.flac
f244abc24e7a6807ec7207984ab702f1 *gd1981-03-20.sndchk.t10.flac
2e62a879f1761e75348bbf0b068f9908 *gd1981-03-20.sndchk.t11.flac

gd1981-03-20.sndchk.t01.flac:a382c306cd48d4a75476d5387feb58f8
gd1981-03-20.sndchk.t02.flac:ef32e1efde161b2fff05438fb774147e
gd1981-03-20.sndchk.t03.flac:495820ef10878a3a05dead1f4cc50479
gd1981-03-20.sndchk.t04.flac:2aa0df925dc4172693d635f1076ea759
gd1981-03-20.sndchk.t05.flac:b85e493d7a0d51df5653af91493862d4
gd1981-03-20.sndchk.t06.flac:98fb6ac444e35fc66165d48d26775da2
gd1981-03-20.sndchk.t07.flac:cb8145194d555e16127bfb9fc0a65795
gd1981-03-20.sndchk.t08.flac:c78c753341a8c4c0506443c15fdf05e7
gd1981-03-20.sndchk.t09.flac:2c1fbf1e607b2fa63c13934c7cabe2cd
gd1981-03-20.sndchk.t10.flac:99f116ac3bbe010ef7c0ebd6c1cb42ba
gd1981-03-20.sndchk.t11.flac:42278957dde1b987a5213096e8ffb0ca

    length     expanded size    cdr  WAVE problems  fmt   ratio  filename
     1:27.00       15346844 B   ---   --   ---xx   flac  0.5157  gd1981-03-20.sndchk.t01.flac
     1:08.49       12110492 B   ---   --   ---xx   flac  0.5321  gd1981-03-20.sndchk.t02.flac
     1:51.25       19639244 B   ---   --   ---xx   flac  0.4995  gd1981-03-20.sndchk.t03.flac
     3:27.23       36568940 B   ---   --   ---xx   flac  0.5279  gd1981-03-20.sndchk.t04.flac
     7:25.69       78660332 B   ---   --   ---xx   flac  0.5206  gd1981-03-20.sndchk.t05.flac
     3:18.54       35054252 B   ---   --   ---xx   flac  0.4841  gd1981-03-20.sndchk.t06.flac
     3:41.72       39153788 B   ---   --   ---xx   flac  0.5159  gd1981-03-20.sndchk.t07.flac
     3:54.65       41430524 B   ---   --   ---xx   flac  0.5170  gd1981-03-20.sndchk.t08.flac
     1:45.31       18594956 B   ---   --   ---xx   flac  0.5143  gd1981-03-20.sndchk.t09.flac
     2:18.48       24456140 B   ---   --   ---xx   flac  0.4860  gd1981-03-20.sndchk.t10.flac
     0:18.33        3252860 B   ---   --   ---xx   flac  0.4800  gd1981-03-20.sndchk.t11.flac
    30:38.19      324268372 B                            0.5120  (11 files)

No errors occured.
Show Checksums
ffp
gd1981-03-20.sndchk.t01.flac:a382c306cd48d4a75476d5387feb58f8
gd1981-03-20.sndchk.t02.flac:ef32e1efde161b2fff05438fb774147e
gd1981-03-20.sndchk.t03.flac:495820ef10878a3a05dead1f4cc50479
gd1981-03-20.sndchk.t04.flac:2aa0df925dc4172693d635f1076ea759
gd1981-03-20.sndchk.t05.flac:b85e493d7a0d51df5653af91493862d4
gd1981-03-20.sndchk.t06.flac:98fb6ac444e35fc66165d48d26775da2
gd1981-03-20.sndchk.t07.flac:cb8145194d555e16127bfb9fc0a65795
gd1981-03-20.sndchk.t08.flac:c78c753341a8c4c0506443c15fdf05e7
gd1981-03-20.sndchk.t09.flac:2c1fbf1e607b2fa63c13934c7cabe2cd
gd1981-03-20.sndchk.t10.flac:99f116ac3bbe010ef7c0ebd6c1cb42ba
gd1981-03-20.sndchk.t11.flac:42278957dde1b987a5213096e8ffb0ca
flac-md5
dc6be53fd4014a3963842d323819b35b *gd1981-03-20.sndchk.t01.flac
09608b53058862225d6931acabd83647 *gd1981-03-20.sndchk.t02.flac
41f538e03bf17370bfcce29d734eb14d *gd1981-03-20.sndchk.t03.flac
09af865236d4f66deac8d188779ead30 *gd1981-03-20.sndchk.t04.flac
050fc3a6fd22256f4405483f7f018471 *gd1981-03-20.sndchk.t05.flac
91ea4d9a73b153c63db20c0663cb1038 *gd1981-03-20.sndchk.t06.flac
b9ef674e80ca55e3658a576ba1209eaf *gd1981-03-20.sndchk.t07.flac
8739b935d078b10e8c57fbddd8fb2c86 *gd1981-03-20.sndchk.t08.flac
53eac21fa4cfb43e9786da996ed2cfeb *gd1981-03-20.sndchk.t09.flac
f244abc24e7a6807ec7207984ab702f1 *gd1981-03-20.sndchk.t10.flac
2e62a879f1761e75348bbf0b068f9908 *gd1981-03-20.sndchk.t11.flac

Comments
Add Comment
Other Sources (comments)
MAC > C > C > D > CD; via... (4) AUD > MC > C > SB!Live > CD... (0) flac16; master... (0) flac24; soundboard... (0) flac16; Source Info:... (0) flac24; Source Info:... (0)
Date User Comment