Browse Collections Artists Sources   Search Dates

Add Show    List Management    Help


Grateful Dead 04/13/83
Patrick Gymnasium, U of Vermont, Burlington, VT
Comments Add Comment    Source Collectors    Add to Collection    Add to Want List    History
Source # 113852 Other Sources
Entered by Matt Vernon
Checksums flac-md5 , ffp
Disc Counts 2 / 3
Media Size
Date Circulated
Date Added
06/02/2011
06/02/2011
Source Summary flac16; Matrix by Jubal H. Seamons using Final Cut Pro (SHN > AIFF > Final Cut > AIFF CD tracking via Audacity > FLAC16 via xACT) 
  Archive
Source Information - Download Text | Download Zip
Grateful Dead
Patrick Gymnasium, U. of Vermont
Burlington, VT
April 13, 1983

Jerry Garcia - Lead Guitar, Vocals
Mickey Hart - Drums
Bill Kreutzmann - Drums
Phil Lesh - Electric Bass, Vocals
Brent Mydland - Keyboards, Vocals
Bob Weir - Rhythm Guitar, Vocals



*Matrix*



-----------------------------------------------------------------
SBD (shnid=1614):

Source:  MSC -> Reel (3 3/4 ips) -> Revox A-77 (reel to reel deck) -> Alesis Masterlink ML-9600 (A/D conversion and CDR mastering) -> CDRs -> EAC -> SHN

Notes:  Digital Transcription beautifully performed by Jim Wise -- THANKS! -- This is a new transcription of this show.  Enjoy!  Darrin -- [email protected] -- seeded to etree 10.2.00

-----------------------------------------------------------------
AUD (shnid=21921):

Source:  MAC(FOB Sennheiser 421)>DAT>CDR>WAV>SHN.
Taper:  Mark Horvath

Comments:  First performance (of only 6) of what should've been a Brent bust-out - "Maybe You Know".

Tape issues during first 30 seconds of Jack Straw.  Splice before Far From Me.  End of Eyes is cut.  Most of Drums and Space are cut.  Tape noise at 05:50 of Morning Dew. There were about 4 dozen digipops/ms zero deviations during the last minute of Touch of Grey which were removed using the SF6 pencil tool with maximum waveform mag.

CDR source via M.Horvath.
DAE(EAC0.9b4, secure mode, offset corrected QPS QUE2410)>editing(as above, SF6)>tracking(cdwav)>sector boundaries confirmed (shntool)>SHN(shorten 3.4) via C.Ladner.

[1/27/04]

-----------------------------------------------------------------
Thank you to Jim Wise and Darrin Sacks for the SBD transfer,
to Mark Horvath for recording the show,
and to Chris Ladner for the AUD transfer.

Matrix by Jubal H. Seamons using Final Cut Pro (SHN > AIFF > Final Cut > AIFF CD tracking via Audacity > FLAC16 via xACT)
June 1, 2011



Set I
-----
d1t01 - Tuning
d1t02 - Jack Straw
d1t03 - They Love Each Other
d1t04 - Beat It On Down The Line
d1t05 - West L.A. Fadeaway
d1t06 - Mama Tried ->
d1t07 - Cumberland Blues
d1t08 - Ramble On Rose
d1t09 - Far From Me
d1t10 - My Brother Esau
d1t11 - Might As Well

Set II
-----
d2t01 - Scarlet Begonias ->
d2t02 - Fire On The Mountain
d2t03 - Estimated Prophet ->
d2t04 - Eyes Of The World ->
d2t05 - Maybe You Know* ->
d2t06 - Drums ->
d3t01 - Space ->
d3t02 - Morning Dew ->
d3t03 - Throwing Stones ->
d3t04 - Good Lovin'

Encore
------
d3t05 - Touch Of Grey



*First of six performances





    length     expanded size    cdr  WAVE problems  fmt   ratio  filename
     0:56.27        9941948 B   ---   --   ---xx  gd83-04-13d1t01.flac
     6:58.41       73831676 B   ---   --   ---xx  gd83-04-13d1t02.flac
     8:04.09       85398812 B   ---   --   ---xx  gd83-04-13d1t03.flac
     4:18.52       45633548 B   ---   --   ---xx  gd83-04-13d1t04.flac
     7:56.67       84124028 B   ---   --   ---xx  gd83-04-13d1t05.flac
     2:46.64       29432972 B   ---   --   ---xx  gd83-04-13d1t06.flac
     6:54.61       73173116 B   ---   --   ---xx  gd83-04-13d1t07.flac
     7:12.18       76247180 B   ---   --   ---xx  gd83-04-13d1t08.flac
     4:15.04       44991452 B   ---   --   ---xx  gd83-04-13d1t09.flac
     6:36.67       70012028 B   ---   --   ---xx  gd83-04-13d1t10.flac
     4:33.17       48197228 B   ---   --   ---xx  gd83-04-13d1t11.flac
    14:27.24      152995292 B   ---   --   ---xx  gd83-04-13d2t01.flac
    12:01.08      127203260 B   ---   --   ---xx  gd83-04-13d2t02.flac
    11:35.18      122640380 B   ---   --   ---xx  gd83-04-13d2t03.flac
     9:46.14      103403372 B   ---   --   ---xx  gd83-04-13d2t04.flac
     3:44.49       39628892 B   ---   --   ---xx  gd83-04-13d2t05.flac
     7:06.32       75221708 B   ---   --   ---xx  gd83-04-13d2t06.flac
     9:06.01       96316796 B   ---   --   ---xx  gd83-04-13d3t01.flac
    12:20.35      130618364 B   ---   --   ---xx  gd83-04-13d3t02.flac
     8:43.49       92372492 B   ---   --   ---xx  gd83-04-13d3t03.flac
     9:01.39       95524172 B   ---   --   ---xx  gd83-04-13d3t04.flac
     6:09.43       65192780 B   ---   --   ---xx  gd83-04-13d3t05.flac
   164:35.64     1742101496 B                            0.5808  (22 files)
Show Checksums
flac-md5
d091d4c2139d3e5d68383c51b4a223aa *gd83-04-13d1t01.flac
b6ca93a6125c1f53a7767e22af6a5cd1 *gd83-04-13d1t02.flac
cd807b640f1ab6b6fc1f34a137db1a75 *gd83-04-13d1t03.flac
f4a393d13d30770f194b8050e2d23190 *gd83-04-13d1t04.flac
c6971c6267e1223a2fe58180d3c69b52 *gd83-04-13d1t05.flac
750414fea3829d344e26b61204bdd2a6 *gd83-04-13d1t06.flac
597bcdc4f52eed4ecd5ee672a52be499 *gd83-04-13d1t07.flac
5d468c2008572bbe0afc5e7f15212363 *gd83-04-13d1t08.flac
f8212b4acef89ae537d76bb3c4b44150 *gd83-04-13d1t09.flac
9f42025b602a4ad685358c228647e753 *gd83-04-13d1t10.flac
7460ce3fd73e84430e1cc054c86438b3 *gd83-04-13d1t11.flac
75ca05dfbfca0f9a39addecc1d5fe9ec *gd83-04-13d2t01.flac
76ff617724dad1cfeb27687374b885d1 *gd83-04-13d2t02.flac
7b7ec7d7ff50a60600effb000f1f79de *gd83-04-13d2t03.flac
822c830c3a6dea7267ebe8d119875724 *gd83-04-13d2t04.flac
b63b506df85b7b7b6816ac9d402ab970 *gd83-04-13d2t05.flac
2cadf38f1bea8a9637f09a567be223ce *gd83-04-13d2t06.flac
d3989b29f0362895364d23cd577b785b *gd83-04-13d3t01.flac
56fa9494d811be5e2df8d14aea1a7a78 *gd83-04-13d3t02.flac
b3aa8f3b2305718dd5030b6184d08930 *gd83-04-13d3t03.flac
52f2b16ea996887ab7f290112585155e *gd83-04-13d3t04.flac
955ec8b64f19de0b394118e0c41171d6 *gd83-04-13d3t05.flac
ffp
gd83-04-13d1t01.flac:3e13caffe880a72031177a1235845a86
gd83-04-13d1t02.flac:9c8d9f9cbb6ed8fd19a7394f8f6ef7b6
gd83-04-13d1t03.flac:274fcf8b742ed70b3ed7033f28406efd
gd83-04-13d1t04.flac:529bf1ec76a8a7d5110421d25aff3c31
gd83-04-13d1t05.flac:0c02993fed419396965f35f5d03f80d7
gd83-04-13d1t06.flac:59efb0feb164f4c3db32114449dd0bb8
gd83-04-13d1t07.flac:f0c088e826262c527dace9e63a687e01
gd83-04-13d1t08.flac:0bdccc5610a4c93976705f576c6b95d4
gd83-04-13d1t09.flac:14f87200a7b93787c71e0a1dccd3b66f
gd83-04-13d1t10.flac:33efd69e9b595ad32b2390d12e46625d
gd83-04-13d1t11.flac:298e7845f5042f31b4e4f58b03f44733
gd83-04-13d2t01.flac:2e790e6958c37d9eb43f0345150e48eb
gd83-04-13d2t02.flac:33e24e3ac383afba2a080a55fbd5bdc0
gd83-04-13d2t03.flac:0657277cf701df7037fea2572d978ad2
gd83-04-13d2t04.flac:0b3f21deca0356aef45d5e5be9ec33aa
gd83-04-13d2t05.flac:d5b58428f811396ed11b1872ed3ed3d2
gd83-04-13d2t06.flac:803bd1e8854081e1119dd76ad2be0801
gd83-04-13d3t01.flac:d62bb1474c7d00f5eaceb4d34f95afa4
gd83-04-13d3t02.flac:05c97598ff2149846e137d86606e6db5
gd83-04-13d3t03.flac:8ce7bb3c2334a7fd9b9d4689ccd2b432
gd83-04-13d3t04.flac:291b60885a9211e53225f13053ad039a
gd83-04-13d3t05.flac:fa76571c3801fd25213afb3a7987b0ad

Comments
Add Comment
Other Sources (comments)
MSC -> Reel (3 3/4 ips) ->... (12) Source: MAC(FOB Sennheiser... (0) SDB>>CM>>C>>DAT>>CDR via... (2) flac16; AUD Source:... (4) flac 16 Source: 3... (1) flac24; AUD: 2x... (1) flac16; AUD: 2x... (1) flac24; Updated... (1) flac16/48kHz; Set 2... (0) flac16; aud cassette... (0) flac24; aud cassette... (0) flac16/44.1... (0) flac24/48 ... (0)
Date User Comment