Browse Collections Artists Sources   Search Dates

Add Show    List Management    Help


Phish 05/31/11
PNC Bank Arts Center, Holmdel, NJ
Comments Add Comment    Source Collectors    Add to Collection    Add to Want List    History
Source # 113947 Other Sources
Entered by Jason Sobel
Checksums FFP , FLAC-md5
Disc Counts 2 / 3
Media Size
Date Circulated
Date Added
06/08/2011
06/08/2011
Source Summary flac16; Microtech Gefell M210's > Oade M248 > Sony SBM-1 >Sony TCD-D8; Sony TC-D8 > Tascam CDRW-2000 > EAC > TLH > FLAC; Taped & Transferred by Jon Pasternak 
Source Information - Download Text | Download Zip
Phish
PNC Bank Performing Arts Center
Holmdel NJ
05-31-2011

Disc One

01 Chalkdust Torture
02 Roggae
03 Punch You In The Eye
04 The Moma Dance
05 Rock and Roll
06 Sand
07 Tube
08 Divided Sky

Disc Two

01 Character Zero
-- set break --
02 After Midnight
03 Possum
04 Drowned
05 Maze

Disc Three

01 Dirt
02 Alaska
03 You Enjoy Myself
-- encore --
04 Fire

Source: Microtech Gefell M210's > Oade M248 > Sony SBM-1 >
Sony TC-D8. Set up in OTS section 302, Row AA.

Transfer: MAD > Sony TC-D8 > Tascam CDRW-2000 > EAC > TLH >
Tagged FLAC. Taped and transferred to CDR by Jon Pasternak.

45c8c250bd7763e3ca30aa6a20b4bc76 *ph2011-05-31d1t01.flac
c455f362514a42b1791d5f38a937be2e *ph2011-05-31d1t02.flac
b360ff6be53966fffbbb7a86872014b0 *ph2011-05-31d1t03.flac
9be23de50b4b081f0fbd45fd10b349ea *ph2011-05-31d1t04.flac
2d8318841434bf794bd83b3b1f60105c *ph2011-05-31d1t05.flac
457fbc924b3cfd52d11d96d4febd3d8d *ph2011-05-31d1t06.flac
e8aff0f5d8cf48214dcfb4448e2f9469 *ph2011-05-31d1t07.flac
6a601c4804fdac163ff1cf591c5e5071 *ph2011-05-31d1t08.flac
202d0109306ebfce3d5c3ce29ff2da66 *ph2011-05-31d2t01.flac
b69c47f79dbd644b53a43e45b2b4da86 *ph2011-05-31d2t02.flac
b3f255df9c36fe9373d1b39e60c4ee36 *ph2011-05-31d2t03.flac
36009defdfc07479336152a2287b659c *ph2011-05-31d2t04.flac
de9107ca7c219a48e0807534ec26518f *ph2011-05-31d2t05.flac
6ef795cef6d014e8dbe77f51a0afbb3a *ph2011-05-31d3t01.flac
7095d64466a16362aa9ff9f63247b563 *ph2011-05-31d3t02.flac
ab37abf3dcc122e8e463e809ff9fad6d *ph2011-05-31d3t03.flac
fb4577940f413d1d2f091eb037b17b9c *ph2011-05-31d3t04.flac

ph2011-05-31d1t01.flac:eed9529a2544b7c330707286a8c1389f
ph2011-05-31d1t02.flac:b4fd1e1f48d568a08078934829dfec87
ph2011-05-31d1t03.flac:a20e7c60c6c95b524ba0173a6e8ab041
ph2011-05-31d1t04.flac:da1e8dc43f92a87279256611914a0b15
ph2011-05-31d1t05.flac:234743bdc1e3793757cc0461e12bf814
ph2011-05-31d1t06.flac:663495c70cb194bd8f59e0e3f59825c9
ph2011-05-31d1t07.flac:b402ed87cf0be4939a29932e1134b40f
ph2011-05-31d1t08.flac:abf7429f9c8a6f76de7fe9b24d7c12af
ph2011-05-31d2t01.flac:82c0fdbaa10d04819661168f7b8ca112
ph2011-05-31d2t02.flac:c40992dd3c90ec2f9c23d2af892e4606
ph2011-05-31d2t03.flac:5dbb31a55af795d32efc041b031e2568
ph2011-05-31d2t04.flac:7c73f93a62bbead2511fc28efc95b92f
ph2011-05-31d2t05.flac:084da436e39e3087f0142da262e079c3
ph2011-05-31d3t01.flac:749cca0195b3b8d539dbd35e3b69ec1b
ph2011-05-31d3t02.flac:d65c48548e2d9170b5df8d01bb5cb04c
ph2011-05-31d3t03.flac:903769240764bec7ef3080b3178c20e1
ph2011-05-31d3t04.flac:0d8e13705155f6928955b0d703d969d7

    length     expanded size    cdr  WAVE problems  fmt   ratio  filename
     8:04.12       85405868 B   ---   --   ---xx   flac  0.6311  ph2011-05-31d1t01.flac
     8:58.58       95039660 B   ---   --   ---xx   flac  0.5774  ph2011-05-31d1t02.flac
     8:27.63       89583020 B   ---   --   ---xx   flac  0.6074  ph2011-05-31d1t03.flac
     7:50.30       82978604 B   ---   --   ---xx   flac  0.6391  ph2011-05-31d1t04.flac
     9:26.08       99861260 B   ---   --   ---xx   flac  0.6396  ph2011-05-31d1t05.flac
    12:37.18      133577180 B   ---   --   ---xx   flac  0.5752  ph2011-05-31d1t06.flac
     5:05.63       53950220 B   ---   --   ---xx   flac  0.5922  ph2011-05-31d1t07.flac
    14:57.18      158273180 B   ---   --   ---xx   flac  0.5672  ph2011-05-31d1t08.flac
     7:47.06       82392956 B   ---   --   ---xx   flac  0.6313  ph2011-05-31d2t01.flac
    11:37.01      122953196 B   ---   --   ---xx   flac  0.5724  ph2011-05-31d2t02.flac
     9:55.08      104976860 B   ---   --   ---xx   flac  0.5843  ph2011-05-31d2t03.flac
    14:05.40      149152124 B   ---   --   ---xx   flac  0.5504  ph2011-05-31d2t04.flac
    11:03.38      117042620 B   ---   --   ---xx   flac  0.6072  ph2011-05-31d2t05.flac
     4:32.54       48107852 B   ---   --   ---xx   flac  0.5002  ph2011-05-31d3t01.flac
     9:38.12      101987468 B   ---   --   ---xx   flac  0.5849  ph2011-05-31d3t02.flac
    19:55.01      210800396 B   ---   --   ---xx   flac  0.5623  ph2011-05-31d3t03.flac
     5:46.12       61062668 B   ---   --   ---xx   flac  0.6113  ph2011-05-31d3t04.flac
   169:47.67     1797145132 B                            0.5871  (17 files)

No errors occured.
Show Checksums
FFP
ph2011-05-31d1t01.flac:eed9529a2544b7c330707286a8c1389f
ph2011-05-31d1t02.flac:b4fd1e1f48d568a08078934829dfec87
ph2011-05-31d1t03.flac:a20e7c60c6c95b524ba0173a6e8ab041
ph2011-05-31d1t04.flac:da1e8dc43f92a87279256611914a0b15
ph2011-05-31d1t05.flac:234743bdc1e3793757cc0461e12bf814
ph2011-05-31d1t06.flac:663495c70cb194bd8f59e0e3f59825c9
ph2011-05-31d1t07.flac:b402ed87cf0be4939a29932e1134b40f
ph2011-05-31d1t08.flac:abf7429f9c8a6f76de7fe9b24d7c12af
ph2011-05-31d2t01.flac:82c0fdbaa10d04819661168f7b8ca112
ph2011-05-31d2t02.flac:c40992dd3c90ec2f9c23d2af892e4606
ph2011-05-31d2t03.flac:5dbb31a55af795d32efc041b031e2568
ph2011-05-31d2t04.flac:7c73f93a62bbead2511fc28efc95b92f
ph2011-05-31d2t05.flac:084da436e39e3087f0142da262e079c3
ph2011-05-31d3t01.flac:749cca0195b3b8d539dbd35e3b69ec1b
ph2011-05-31d3t02.flac:d65c48548e2d9170b5df8d01bb5cb04c
ph2011-05-31d3t03.flac:903769240764bec7ef3080b3178c20e1
ph2011-05-31d3t04.flac:0d8e13705155f6928955b0d703d969d7
FLAC-md5
45c8c250bd7763e3ca30aa6a20b4bc76 *ph2011-05-31d1t01.flac
c455f362514a42b1791d5f38a937be2e *ph2011-05-31d1t02.flac
b360ff6be53966fffbbb7a86872014b0 *ph2011-05-31d1t03.flac
9be23de50b4b081f0fbd45fd10b349ea *ph2011-05-31d1t04.flac
2d8318841434bf794bd83b3b1f60105c *ph2011-05-31d1t05.flac
457fbc924b3cfd52d11d96d4febd3d8d *ph2011-05-31d1t06.flac
e8aff0f5d8cf48214dcfb4448e2f9469 *ph2011-05-31d1t07.flac
6a601c4804fdac163ff1cf591c5e5071 *ph2011-05-31d1t08.flac
202d0109306ebfce3d5c3ce29ff2da66 *ph2011-05-31d2t01.flac
b69c47f79dbd644b53a43e45b2b4da86 *ph2011-05-31d2t02.flac
b3f255df9c36fe9373d1b39e60c4ee36 *ph2011-05-31d2t03.flac
36009defdfc07479336152a2287b659c *ph2011-05-31d2t04.flac
de9107ca7c219a48e0807534ec26518f *ph2011-05-31d2t05.flac
6ef795cef6d014e8dbe77f51a0afbb3a *ph2011-05-31d3t01.flac
7095d64466a16362aa9ff9f63247b563 *ph2011-05-31d3t02.flac
ab37abf3dcc122e8e463e809ff9fad6d *ph2011-05-31d3t03.flac
fb4577940f413d1d2f091eb037b17b9c *ph2011-05-31d3t04.flac

Comments
Add Comment
Other Sources (comments)
flac16 &... (0) flac24; Sennheiser... (0)
Date User Comment