Browse Collections Artists Sources   Search Dates

Add Show    List Management    Help


Phish 06/10/11
Susquehanna Bank Center, Camden, NJ
Comments Add Comment    Source Collectors    Add to Collection    Add to Want List    History
Source # 114000 Other Sources
Entered by Jason Sobel
Checksums 16bit-FFP , 16bit-FLAC-md5
Disc Counts 2 / 2
Media Size
Date Circulated
Date Added
06/11/2011
06/11/2011
Source Summary flac16; Schoeps CMC6/MK4 -> Sound Devices 744T (24bit/44.1); Samplitude Professional v11.2 -> FLAC16; Taped & Transferred by Charlie Miller 
Source Information - Download Text | Download Zip
Phish - June 10, 2011
Susquehanna Bank Center - Camden, NJ

Recording Info:
Schoeps CMC6/MK4 -> Sound Devices 744T (24bit/44.1) -> Samplitude Professional v11.2 -> FLAC/16
(3 Discs Audio / 1 DVD FLAC)

Recorded By Charlie Miller
[email protected]

Notes:
-- Tracked by set, not by disc
-- Recorded 2nd row behind sbd with mics 13 feet high aimed just outside the stacks
-- There's just a touch of wind noise early in the show but nothing too bad
-- Thanks to padelimike for the ticket and for sharing his mic stand and cables
-- Thanks to all the taper's who helped me with my battery issue
-- I'm new to this so I'm sorry for any tracking errors

Set 1:
s1t01 - Crowd/Tuning
s1t02 - Rocky Top
s1t03 - Mike's Song ->
s1t04 - I Am Hydrogen ->
s1t05 - Weekapaug Groove
s1t06 - Stash
s1t07 - Tube ->
s1t08 - Guyute
s1t09 - Guelah Papyrus ->
s1t10 - Scent Of A Mule
s1t11 - Cavern
s1t12 - The Sloth
s1t13 - The Curtain With

Set 2:
s2t01 - Crowd/Tuning
s2t02 - Down With Disease
s2t03 - Free
s2t04 - Possum
s2t05 - Big Black Furry Creatures From Mars
s2t06 - Swept Away ->
s2t07 - Steep
s2t08 - David Bowie
s2t09 - Julius
s2t10 - Golgi Apparatus ->
s2t11 - Fluffhead ->
s2t12 - Joy

Encore:
s2t13 - Bold As Love


SHNTOOL OUTPUT:
    length     expanded size   cdr  WAVE problems filename
     1:53.07       19949708    ---   --   -----   phish2011-06-10s1t01.wav
     2:34.39       27257372    ---   --   -----   phish2011-06-10s1t02.wav
     2:39.33       28125260    ---   --   -----   phish2011-06-10s1t03.wav
     7:38.00       80791244    ---   --   -----   phish2011-06-10s1t04.wav
    10:02.43      106293980    ---   --   -----   phish2011-06-10s1t05.wav
    14:06.31      149307356    ---   --   -----   phish2011-06-10s1t06.wav
     3:35.31       37998956    ---   --   -----   phish2011-06-10s1t07.wav
    10:30.16      111169676    ---   --   -----   phish2011-06-10s1t08.wav
     5:31.39       58480172    ---   --   -----   phish2011-06-10s1t09.wav
     8:04.17       85417628    ---   --   -----   phish2011-06-10s1t10.wav
     4:34.27       48397148    ---   --   -----   phish2011-06-10s1t11.wav
     4:49.37       51066668    ---   --   -----   phish2011-06-10s1t12.wav
     8:38.57       91509308    ---   --   -----   phish2011-06-10s1t13.wav
     6:33.00       69325244    ---   --   -----   phish2011-06-10s1t14.wav
     0:39.70        7044284    ---   --   -----   phish2011-06-10s2t01.wav
    12:42.20      134463884    ---   --   -----   phish2011-06-10s2t02.wav
     7:03.31       74690156    ---   --   -----   phish2011-06-10s2t03.wav
    10:33.27      111724748    ---   --   -----   phish2011-06-10s2t04.wav
     5:11.47       54970988    ---   --   -----   phish2011-06-10s2t05.wav
     1:00.55       10713404    ---   --   -----   phish2011-06-10s2t06.wav
     6:50.61       72467516    ---   --   -----   phish2011-06-10s2t07.wav
    10:42.60      113389964    ---   --   -----   phish2011-06-10s2t08.wav
     8:24.05       88917404    ---   --   -----   phish2011-06-10s2t09.wav
     4:39.56       49347356    ---   --   -----   phish2011-06-10s2t10.wav
    14:12.51      150412796    ---   --   -----   phish2011-06-10s2t11.wav
     8:21.56       88508156    ---   --   -----   phish2011-06-10s2t12.wav
     5:47.45       61316684    ---   --   -----   phish2011-06-10s2t13.wav
   187:21.61     1983057060 B                     (totals for 27 files)
Show Checksums
16bit-FFP
phish2011-06-10s1t01.flac:206ea7caac22ce5d4150faca9b9b252c
phish2011-06-10s1t02.flac:dec1cfc69115ca00a524292a7456608a
phish2011-06-10s1t03.flac:ea08836dc7f49e9e2f06efda125d4cf8
phish2011-06-10s1t04.flac:c9f52673c62eeba4b79727f414bfa734
phish2011-06-10s1t05.flac:863d26f7e0abab2f7b9eb3aaef4a17ef
phish2011-06-10s1t06.flac:aded24cd8d1a8356fd84cb6fa3831533
phish2011-06-10s1t07.flac:f4121e6b378ef33e501df777e327a01f
phish2011-06-10s1t08.flac:64f75a75cae734ee3f0b6c2f60658e69
phish2011-06-10s1t09.flac:9762b5395140ced7bac882abc314af3d
phish2011-06-10s1t10.flac:53edd61b047fc7a7da3748714a5928c7
phish2011-06-10s1t11.flac:32274a7b23b34b5d65f2775185533a33
phish2011-06-10s1t12.flac:088c545cf77e0ccce386eefa6754a696
phish2011-06-10s1t13.flac:eb95f332fc6804702563cce831c57bf5
phish2011-06-10s1t14.flac:34bea4f1b9419fe1d72bb206fd539eda
phish2011-06-10s2t01.flac:5fe384bf62907a310decc76fbcc1c6f6
phish2011-06-10s2t02.flac:d47fb14c1427c14c80096966755a1457
phish2011-06-10s2t03.flac:7b17f33385a56ddc475a8ff721572f01
phish2011-06-10s2t04.flac:09f433f8f92f5cf9da180cb9aecc66e1
phish2011-06-10s2t05.flac:17af730b9f401854ebd6c9326d957f6e
phish2011-06-10s2t06.flac:90e050dc8f02cc963128c35af9e618b0
phish2011-06-10s2t07.flac:d38a087aac10ba9ade790a8c7672f15b
phish2011-06-10s2t08.flac:74bc4ccf578cf687901b4cf76cb86a9a
phish2011-06-10s2t09.flac:cf42e8e3a5031fd8d1d5a6481012a63d
phish2011-06-10s2t10.flac:fefc36ad1363f69c991c70229646e721
phish2011-06-10s2t11.flac:42ed93f9da4d6736582df9453c4449ba
phish2011-06-10s2t12.flac:ede34a17e4435317c019a4c6e4bb5bcb
phish2011-06-10s2t13.flac:53346d64d7a1e4a17edbe18f4fa2a46b
16bit-FLAC-md5
phish2011-06-10s1t01.flac:206ea7caac22ce5d4150faca9b9b252c
phish2011-06-10s1t02.flac:dec1cfc69115ca00a524292a7456608a
phish2011-06-10s1t03.flac:ea08836dc7f49e9e2f06efda125d4cf8
phish2011-06-10s1t04.flac:c9f52673c62eeba4b79727f414bfa734
phish2011-06-10s1t05.flac:863d26f7e0abab2f7b9eb3aaef4a17ef
phish2011-06-10s1t06.flac:aded24cd8d1a8356fd84cb6fa3831533
phish2011-06-10s1t07.flac:f4121e6b378ef33e501df777e327a01f
phish2011-06-10s1t08.flac:64f75a75cae734ee3f0b6c2f60658e69
phish2011-06-10s1t09.flac:9762b5395140ced7bac882abc314af3d
phish2011-06-10s1t10.flac:53edd61b047fc7a7da3748714a5928c7
phish2011-06-10s1t11.flac:32274a7b23b34b5d65f2775185533a33
phish2011-06-10s1t12.flac:088c545cf77e0ccce386eefa6754a696
phish2011-06-10s1t13.flac:eb95f332fc6804702563cce831c57bf5
phish2011-06-10s1t14.flac:34bea4f1b9419fe1d72bb206fd539eda
phish2011-06-10s2t01.flac:5fe384bf62907a310decc76fbcc1c6f6
phish2011-06-10s2t02.flac:d47fb14c1427c14c80096966755a1457
phish2011-06-10s2t03.flac:7b17f33385a56ddc475a8ff721572f01
phish2011-06-10s2t04.flac:09f433f8f92f5cf9da180cb9aecc66e1
phish2011-06-10s2t05.flac:17af730b9f401854ebd6c9326d957f6e
phish2011-06-10s2t06.flac:90e050dc8f02cc963128c35af9e618b0
phish2011-06-10s2t07.flac:d38a087aac10ba9ade790a8c7672f15b
phish2011-06-10s2t08.flac:74bc4ccf578cf687901b4cf76cb86a9a
phish2011-06-10s2t09.flac:cf42e8e3a5031fd8d1d5a6481012a63d
phish2011-06-10s2t10.flac:fefc36ad1363f69c991c70229646e721
phish2011-06-10s2t11.flac:42ed93f9da4d6736582df9453c4449ba
phish2011-06-10s2t12.flac:ede34a17e4435317c019a4c6e4bb5bcb
phish2011-06-10s2t13.flac:53346d64d7a1e4a17edbe18f4fa2a46b

Comments
Add Comment
Other Sources (comments)
flac16; Schoeps... (0) flac16; Schoeps Mk41... (0) flac16; DPA 4022 >... (0) flac16; Schoeps... (0) flac16 &... (0) flac16; Busman Bsc1... (0) flac24; Set 1: (FOB)... (0) flac16; AKG CK1x >... (0) flac16 &... (0) flac24; Schoeps... (0) flac16; set 1: (FOB)... (0) flac16; SP-TFB-2 >... (0) flac16; Schoeps CCM4... (0) flac16; Schoeps Mk41... (0)
Date User Comment