Browse Collections Artists Sources   Search Dates

Add Show    List Management    Help


Phish 06/10/11
Susquehanna Bank Center, Camden, NJ
Comments Add Comment    Source Collectors    Add to Collection    Add to Want List    History
Source # 114030 Other Sources
Entered by Jason Sobel
Checksums 24bit-FFP , 24bit-FLAC-md5
Disc Counts 0 / 0
Media Size
Date Circulated
Date Added

06/13/2011
Source Summary flac24; Schoeps CMC6/MK4 -> Sound Devices 744T (24bit/44.1) -> Samplitude Professional v11.2 -> FLAC; Taped & Transferred by Charlie Miller (NOTE: this is a 24 bit seed) 
Source Information - Download Text | Download Zip
Phish - June 10, 2011
Susquehanna Bank Center - Camden, NJ

Recording Info:
Schoeps CMC6/MK4 -> Sound Devices 744T (24bit/44.1) -> Samplitude Professional v11.2 -> FLAC/24
(1 DVD FLAC)

Recorded By Charlie Miller
[email protected]

Notes:
-- This is a 24bit source. I also circulated a 16bit version
-- Recorded 2nd row behind sbd with mics 13 feet high aimed just outside the stacks
-- There's just a touch of wind noise early in the show but nothing too bad
-- Thanks to padelimike for the ticket and for sharing his mic stand
-- Thanks to all the taper's who helped me with my battery issue
-- I'm new to this so I'm sorry for any tracking errors

Set 1:
s1t01 - Crowd/Tuning
s1t02 - Rocky Top
s1t03 - Mike's Song ->
s1t04 - I Am Hydrogen ->
s1t05 - Weekapaug Groove
s1t06 - Stash
s1t07 - Tube ->
s1t08 - Guyute
s1t09 - Guelah Papyrus ->
s1t10 - Scent Of A Mule
s1t11 - Cavern
s1t12 - The Sloth
s1t13 - The Curtain With

Set 2:
s2t01 - Crowd/Tuning
s2t02 - Down With Disease
s2t03 - Free
s2t04 - Possum
s2t05 - Big Black Furry Creatures From Mars
s2t06 - Swept Away ->
s2t07 - Steep
s2t08 - David Bowie
s2t09 - Julius
s2t10 - Golgi Apparatus ->
s2t11 - Fluffhead ->
s2t12 - Joy

Encore:
s2t13 - Bold As Love


SHNTOOL OUTPUT:
    length     expanded size   cdr  WAVE problems filename
     1:53.095      29924900    cxx   --   -----   phish2011-06-10s1t01.wav
     2:34.526      40887608    cxx   --   -----   phish2011-06-10s1t02.wav
     2:39.433      42186140    cxx   --   -----   phish2011-06-10s1t03.wav
     7:38.007     121188800    cxx   --   -----   phish2011-06-10s1t04.wav
    10:02.577     159441986    cxx   --   -----   phish2011-06-10s1t05.wav
    14:06.407     223959284    cxx   --   -----   phish2011-06-10s1t06.wav
     3:35.416      56999114    cxx   --   -----   phish2011-06-10s1t07.wav
    10:30.217     166755368    cxx   --   -----   phish2011-06-10s1t08.wav
     5:31.509      87717368    cxx   --   -----   phish2011-06-10s1t09.wav
     8:04.228     128126678    cxx   --   -----   phish2011-06-10s1t10.wav
     4:34.361      72595982    cxx   --   -----   phish2011-06-10s1t11.wav
     4:49.491      76599488    cxx   --   -----   phish2011-06-10s1t12.wav
     8:38.765     137265278    cxx   --   -----   phish2011-06-10s1t13.wav
     6:33.006     103989386    cxx   --   -----   phish2011-06-10s1t14.wav
     0:39.922      10563338    cxx   --   -----   phish2011-06-10s2t01.wav
    12:42.274     201697652    cxx   --   -----   phish2011-06-10s2t02.wav
     7:03.415     112035770    cxx   --   -----   phish2011-06-10s2t03.wav
    10:33.354     167585510    cxx   --   -----   phish2011-06-10s2t04.wav
     5:11.624      82455752    cxx   --   -----   phish2011-06-10s2t05.wav
     1:00.740      16071740    cxx   --   -----   phish2011-06-10s2t06.wav
     6:50.808     108699962    cxx   --   -----   phish2011-06-10s2t07.wav
    10:42.811     170087894    cxx   --   -----   phish2011-06-10s2t08.wav
     8:24.058     133373750    cxx   --   -----   phish2011-06-10s2t09.wav
     4:39.751      74022236    cxx   --   -----   phish2011-06-10s2t10.wav
    14:12.674     225617672    cxx   --   -----   phish2011-06-10s2t11.wav
     8:21.749     132762704    cxx   --   -----   phish2011-06-10s2t12.wav
     5:47.594      91973474    cxx   --   -----   phish2011-06-10s2t13.wav
   187:21.813    2974584834 B                     (totals for 27 files)
Show Checksums
24bit-FFP
phish2011-06-10s1t01.flac:7ed6b6a990ffd0241ae7562e541153fa
phish2011-06-10s1t02.flac:57d8242c05daf52807290150a16d8721
phish2011-06-10s1t03.flac:adfd269903d47df2d340b652853cebd2
phish2011-06-10s1t04.flac:f5a85e36a0819d7182d63ba89f4590d1
phish2011-06-10s1t05.flac:a600080efef7426eac18aa4f3108d2a3
phish2011-06-10s1t06.flac:b90f19bedfa02c47229dc52add10ca00
phish2011-06-10s1t07.flac:78b4ab5cb2adc2028cfe37d414c9c0cf
phish2011-06-10s1t08.flac:3d33929414f689d1afe005382da03fcf
phish2011-06-10s1t09.flac:e08c0e3890fe93b571b8270d9a8f3a0f
phish2011-06-10s1t10.flac:40164d407c87f643dd3183241656d9fb
phish2011-06-10s1t11.flac:ae297fb1e85c46ab86b83c4b3f0489e5
phish2011-06-10s1t12.flac:f68556505dd7a21d492bf977f2250d85
phish2011-06-10s1t13.flac:6f3e233a278e878e1eec50965d93d0fb
phish2011-06-10s1t14.flac:50b7719b2c5f19dae9c14a5fe3ddd88b
phish2011-06-10s2t01.flac:a66db02782b912a0379818629b9629ca
phish2011-06-10s2t02.flac:b91434b18299ef55bdc896dbfb2bd22a
phish2011-06-10s2t03.flac:b415ba868c4ba220ae57accf88a85d90
phish2011-06-10s2t04.flac:0b3eabffa17a91e1101d177e4aab968b
phish2011-06-10s2t05.flac:7cf94564a996dc5627edbf896dc9550d
phish2011-06-10s2t06.flac:58d1df0aa9b68bdb9bc747dc9ca568ec
phish2011-06-10s2t07.flac:08eb43718e14d73480847c2759f7fdc2
phish2011-06-10s2t08.flac:26a6bb6678c96f18b92d256774584ad4
phish2011-06-10s2t09.flac:642c49716e114671162daebe0e950600
phish2011-06-10s2t10.flac:093c729ab056d20884a51d3938cb4ffd
phish2011-06-10s2t11.flac:6876adeaa2c005b32c11e6d283e01c0a
phish2011-06-10s2t12.flac:913d7407e3e3bd982e312a7fee50acc2
phish2011-06-10s2t13.flac:363c4c472536c4be8348e2da18b2d92a
24bit-FLAC-md5
0a19dc37292f0a6faccb10ce100f3926 *phish2011-06-10s1t01.flac
640136a9a93f30d2663254924b17c8f9 *phish2011-06-10s1t02.flac
080de6ce35badff86229abaf5f632ed1 *phish2011-06-10s1t03.flac
8030ddb7d0d5124f0d685c14f6eb52d7 *phish2011-06-10s1t04.flac
47dc950ff2e0dd12cf8e4ae648f10cd8 *phish2011-06-10s1t05.flac
baa694b50a134d3e696a3b77dbe71b06 *phish2011-06-10s1t06.flac
7c1e7ad728a9adcfa2e4ab415392af5f *phish2011-06-10s1t07.flac
72324865e214cea8747e98612806287f *phish2011-06-10s1t08.flac
cf737e89586ff19fd2307b291e732acb *phish2011-06-10s1t09.flac
81ffea889efbf5f97eba47720232ae47 *phish2011-06-10s1t10.flac
6d6abea21aa74e6d4f94e4cde12aa187 *phish2011-06-10s1t11.flac
bfaa1eaba79b32bd6602b98de4934a67 *phish2011-06-10s1t12.flac
5bcb8bc4e50b64240ac4e3d82f895374 *phish2011-06-10s1t13.flac
0cc5b3a9c92b24076f9a56e46b24a672 *phish2011-06-10s1t14.flac
492049a76f8c2a17fb4e369ceefb68e4 *phish2011-06-10s2t01.flac
a900027d6ba2c2c123b8c27ca10581e6 *phish2011-06-10s2t02.flac
3b1a84e09708629c64be0e2fa8e8a5f5 *phish2011-06-10s2t03.flac
adafda3ba52dc757ced653e2113cf5aa *phish2011-06-10s2t04.flac
639c72deacf9f8448cc56f1a71cc7ff2 *phish2011-06-10s2t05.flac
6dc03d34655c1834974230501157c5ba *phish2011-06-10s2t06.flac
3ccebf4febbabf9e31a834f6762b0b3e *phish2011-06-10s2t07.flac
768ab1c812458ee7d7bf2a7fbb35c26e *phish2011-06-10s2t08.flac
28653e996c144c5848fbba83d7e06ddb *phish2011-06-10s2t09.flac
94d3621cc3517d320bcb2ad0cf643b6c *phish2011-06-10s2t10.flac
9208f07c0c490c477eddab03b9954146 *phish2011-06-10s2t11.flac
2ae0e0a9ee20ebcfc53d17a7e8e5c790 *phish2011-06-10s2t12.flac
66274a333d6afc72f2a8359dd9416127 *phish2011-06-10s2t13.flac

Comments
Add Comment
Other Sources (comments)
flac16; Schoeps... (0) flac16; Schoeps Mk41... (0) flac16; DPA 4022 >... (0) flac16; Schoeps... (0) flac16; Schoeps... (0) flac16 &... (0) flac16; Busman Bsc1... (0) flac24; Set 1: (FOB)... (0) flac16; AKG CK1x >... (0) flac16 &... (0) flac16; set 1: (FOB)... (0) flac16; SP-TFB-2 >... (0) flac16; Schoeps CCM4... (0) flac16; Schoeps Mk41... (0)
Date User Comment