Browse Collections Artists Sources   Search Dates

Add Show    List Management    Help


Phish 06/12/11
Merriweather Post Pavillion, Columbia, MD
Comments Add Comment    Source Collectors    Add to Collection    Add to Want List    History
Source # 114035 Other Sources
Entered by Jason Sobel
Checksums 24bit-FFP , 24bit-FLAC-md5 , 16bit-FFP , 16bit-FLAC-md5
Disc Counts 0 / 0
Media Size
Date Circulated
Date Added

06/13/2011
Source Summary flac16 & flac24; Schoeps CMC6/MK4 -> Sound Devices 744T (24bit/44.1); Samplitude Professional v11.2 -> FLAC; Taped & Transferred by Charlie Miller (NOTE: both 16 bit & 24 bit versions are available) 
Source Information - Download Text | Download Zip
-=-=-=-=-=-=-=-=-=-=-=-=-=-=-=-=-=-=-=-=-=-
-=-=-    16 bit / 44.1 kHz version    -=-=-
-=-=-=-=-=-=-=-=-=-=-=-=-=-=-=-=-=-=-=-=-=-

Phish - June 12, 2011
Merriweather Post Pavilion - Columbia, MD

Recording Info:
Schoeps CMC6/MK4 -> Sound Devices 744T (24bit/44.1) -> Samplitude Professional v11.2 -> FLAC/16
(3 Discs Audio / 1 DVD FLAC)

Recorded By Charlie Miller
[email protected]

Notes:
-- Tracked by set, not by disc
-- Recorded directly center stage next to sbd with mics 13 feet high aimed at the stacks
-- Thanks to padelimike for the ticket and for sharing his mic stand and cables
-- I'm new to this so I'm sorry for any tracking errors

Set 1:
s1t01 - Crowd/Tuning
s1t02 - Buried Alive
s1t03 - Lonesome Cowboy Bill
s1t04 - Ha Ha Ha
s1t05 - Sample In A Jar
s1t06 - The Divided Sky
s1t07 - Wolfman's Brother ->
s1t08 - Boogie On Reggae Woman
s1t09 - Gumbo
s1t10 - Halley's Comet
s1t11 - Bathtub Gin
s1t12 - Jesus Just Left Chicago
s1t13 - Character Zero

Set 2:
s2t01 - Crowd/Tuning
s2t02 - Party Time
s2t03 - Crosseyed And Painless
s2t04 - Steam
s2t05 - Light
s2t06 - The Wedge
s2t07 - Alaska
s2t08 - Halfway To The Moon
s2t09 - Harry Hood
s2t10 - Backwards Down The Number Line
s2t11 - Loving Cup

Encore:
s2t12 - Sanity
s2t13 - Makisupa Policeman
s2t14 - First Tube


SHNTOOL OUTPUT:
    length     expanded size   cdr  WAVE problems filename
     1:13.70       13041884    ---   --   -----   phish2011-06-12s1t01.wav
     3:11.55       33821804    ---   --   -----   phish2011-06-12s1t02.wav
     3:04.07       32474108    ---   --   -----   phish2011-06-12s1t03.wav
     1:45.60       18663164    ---   --   -----   phish2011-06-12s1t04.wav
     4:56.68       52374380    ---   --   -----   phish2011-06-12s1t05.wav
    15:17.73      161930540    ---   --   -----   phish2011-06-12s1t06.wav
     8:00.23       84726140    ---   --   -----   phish2011-06-12s1t07.wav
     8:05.74       85728092    ---   --   -----   phish2011-06-12s1t08.wav
     4:23.30       46463804    ---   --   -----   phish2011-06-12s1t09.wav
     5:48.29       61455452    ---   --   -----   phish2011-06-12s1t10.wav
    10:52.14      115045772    ---   --   -----   phish2011-06-12s1t11.wav
     8:35.37       90933068    ---   --   -----   phish2011-06-12s1t12.wav
     8:27.24       89491292    ---   --   -----   phish2011-06-12s1t13.wav
     0:36.12        6378668    ---   --   -----   phish2011-06-12s2t01.wav
     5:23.64       57127772    ---   --   -----   phish2011-06-12s2t02.wav
    10:33.60      111802364    ---   --   -----   phish2011-06-12s2t03.wav
    10:34.63      111985820    ---   --   -----   phish2011-06-12s2t04.wav
     9:21.72       99129788    ---   --   -----   phish2011-06-12s2t05.wav
     5:48.73       61558940    ---   --   -----   phish2011-06-12s2t06.wav
    10:00.63      105988220    ---   --   -----   phish2011-06-12s2t07.wav
     6:33.27       69388748    ---   --   -----   phish2011-06-12s2t08.wav
     9:27.71      100185836    ---   --   -----   phish2011-06-12s2t09.wav
     7:16.48       77023340    ---   --   -----   phish2011-06-12s2t10.wav
     9:05.72       96307388    ---   --   -----   phish2011-06-12s2t11.wav
     5:01.68       53256380    ---   --   -----   phish2011-06-12s2t12.wav
     4:14.16       44843276    ---   --   -----   phish2011-06-12s2t13.wav
     7:38.74       80965292    ---   --   -----   phish2011-06-12s2t14.wav
   185:22.72     1962091332 B                     (totals for 27 files)





-=-=-=-=-=-=-=-=-=-=-=-=-=-=-=-=-=-=-=-=-=-
-=-=-    24 bit / 44.1 kHz version    -=-=-
-=-=-=-=-=-=-=-=-=-=-=-=-=-=-=-=-=-=-=-=-=-

Phish - June 12, 2011
Merriweather Post Pavilion - Columbia, MD

Recording Info:
Schoeps CMC6/MK4 -> Sound Devices 744T (24bit/44.1) -> Samplitude Professional v11.2 -> FLAC/24
(1 DVD FLAC)

Recorded By Charlie Miller
[email protected]

Notes:
-- This is a 24bit source. I also circulated a 16bit version
-- Recorded directly center stage next to sbd with mics 13 feet high aimed at the stacks
-- Thanks to padelimike for the ticket and for sharing his mic stand and cables
-- I'm new to this so I'm sorry for any tracking errors

Set 1:
s1t01 - Crowd/Tuning
s1t02 - Buried Alive
s1t03 - Lonesome Cowboy Bill
s1t04 - Ha Ha Ha
s1t05 - Sample In A Jar
s1t06 - The Divided Sky
s1t07 - Wolfman's Brother ->
s1t08 - Boogie On Reggae Woman
s1t09 - Gumbo
s1t10 - Halley's Comet
s1t11 - Bathtub Gin
s1t12 - Jesus Just Left Chicago
s1t13 - Character Zero

Set 2:
s2t01 - Crowd/Tuning
s2t02 - Party Time
s2t03 - Crosseyed And Painless
s2t04 - Steam
s2t05 - Light
s2t06 - The Wedge
s2t07 - Alaska
s2t08 - Halfway To The Moon
s2t09 - Harry Hood
s2t10 - Backwards Down The Number Line
s2t11 - Loving Cup

Encore:
s2t12 - Sanity
s2t13 - Makisupa Policeman
s2t14 - First Tube


SHNTOOL OUTPUT:
    length     expanded size   cdr  WAVE problems filename
     1:13.943      19565252    cxx   --   -----   phish2011-06-12s1t01.wav
     3:11.731      50732144    cxx   --   -----   phish2011-06-12s1t02.wav
     3:04.095      48711602    cxx   --   -----   phish2011-06-12s1t03.wav
     1:45.800      27994664    cxx   --   -----   phish2011-06-12s1t04.wav
     4:56.901      78560150    cxx   --   -----   phish2011-06-12s1t05.wav
    15:17.979     242897294    cxx   --   -----   phish2011-06-12s1t06.wav
     8:00.309     127089806    cxx   --   -----   phish2011-06-12s1t07.wav
     8:05.980     128590250    cxx   --   -----   phish2011-06-12s1t08.wav
     4:23.404      69696632    cxx   --   -----   phish2011-06-12s1t09.wav
     5:48.387      92183336    cxx   --   -----   phish2011-06-12s1t10.wav
    10:52.185     172568264    cxx   --   -----   phish2011-06-12s1t11.wav
     8:35.493     136399622    cxx   --   -----   phish2011-06-12s1t12.wav
     8:27.317     134236064    cxx   --   -----   phish2011-06-12s1t13.wav
     0:36.167       9569840    cxx   --   -----   phish2011-06-12s2t01.wav
     5:23.843      85689008    cxx   --   -----   phish2011-06-12s2t02.wav
    10:33.802     167703992    cxx   --   -----   phish2011-06-12s2t03.wav
    10:34.841     167979104    cxx   --   -----   phish2011-06-12s2t04.wav
     9:21.956     148693694    cxx   --   -----   phish2011-06-12s2t05.wav
     5:48.984      92341148    cxx   --   -----   phish2011-06-12s2t06.wav
    10:00.832     158980202    cxx   --   -----   phish2011-06-12s2t07.wav
     6:33.359     104082800    cxx   --   -----   phish2011-06-12s2t08.wav
     9:27.956     150281288    cxx   --   -----   phish2011-06-12s2t09.wav
     7:16.636     115533866    cxx   --   -----   phish2011-06-12s2t10.wav
     9:05.963     144461774    cxx   --   -----   phish2011-06-12s2t11.wav
     5:01.903      79883624    cxx   --   -----   phish2011-06-12s2t12.wav
     4:14.213      67264862    cxx   --   -----   phish2011-06-12s2t13.wav
     7:38.970     121443458    cxx   --   -----   phish2011-06-12s2t14.wav
   185:22.950    2943133740 B                     (totals for 27 files)
Show Checksums
24bit-FFP
phish2011-06-12s1t01.flac:7471c47e34de6212510b455ca0b67de1
phish2011-06-12s1t02.flac:0e0d856df61936d6107f1208b612203f
phish2011-06-12s1t03.flac:38a3ab11ac923f2eb461f29ae886bb07
phish2011-06-12s1t04.flac:8dfe32384edd443c7af51405b00b6c12
phish2011-06-12s1t05.flac:bcb807c432621433dd09caab5cc3922a
phish2011-06-12s1t06.flac:9e3095afa6b7ebfc4179ac374ad18de2
phish2011-06-12s1t07.flac:c2d754807e8a7ac002e038794c4d3ad0
phish2011-06-12s1t08.flac:de1646b7a33b0fbfa0e51412b4c82b66
phish2011-06-12s1t09.flac:2aed58061fd25879ba4092e960748ce2
phish2011-06-12s1t10.flac:61c83f4f6f97157ec9c89d11342b8ddc
phish2011-06-12s1t11.flac:abc3fea29cec88dbfb1442b5ed4e6b4e
phish2011-06-12s1t12.flac:f1a09962bad4dd47ee3389c70d71186f
phish2011-06-12s1t13.flac:a8a278fba04308465f85f5a42e7d6316
phish2011-06-12s2t01.flac:a0c3c202e92ab8b74ad805ea242e55af
phish2011-06-12s2t02.flac:07d3125ac35d1c57b119bd4301bed13d
phish2011-06-12s2t03.flac:a601967f0337a873426d3cefeb352a53
phish2011-06-12s2t04.flac:9e697fefc2c07378fae889e45bad4e63
phish2011-06-12s2t05.flac:561879bed6241923f9e56db7af3b308a
phish2011-06-12s2t06.flac:2d9f7027ce98487cf13d49643ab0805a
phish2011-06-12s2t07.flac:970da762fd6f26bafedff9e26a886673
phish2011-06-12s2t08.flac:ff60adce26c0bab266a9cdff6e1b4d18
phish2011-06-12s2t09.flac:73a12899f9428bf4637de7c4d0018298
phish2011-06-12s2t10.flac:3bb9ee85c33fae904c49b674c0e8b6ab
phish2011-06-12s2t11.flac:9df2405734ea7b5aea54a21f7cbd3cdb
phish2011-06-12s2t12.flac:b16c2d8c7eab8af95c8484efcc01b64c
phish2011-06-12s2t13.flac:79a6e2dd5b7693f48f035b920238de59
phish2011-06-12s2t14.flac:4e5580fb1cecc4baa267a1e082a1ef02
24bit-FLAC-md5
aadb344716f311e90d1f898cf9afe38b *phish2011-06-12s1t01.flac
09b590074a91eab92701e77292e79907 *phish2011-06-12s1t02.flac
85bf1aa017f1785de1e9fa9753255d78 *phish2011-06-12s1t03.flac
9770141c39cfe4109be90ced210847d3 *phish2011-06-12s1t04.flac
b36722fbeb1da478a3aefb791b72494f *phish2011-06-12s1t05.flac
41bc7c648a1049efcc7514e18f48234b *phish2011-06-12s1t06.flac
1717ca36508d43cb4e876cb1bfab14d8 *phish2011-06-12s1t07.flac
0609ee530cd4ada8b1c143f2f96a9169 *phish2011-06-12s1t08.flac
dc2a5264aabda0657a2869d281e212ac *phish2011-06-12s1t09.flac
c6cefdc725b72646c13054755896ea87 *phish2011-06-12s1t10.flac
41bf15d41d1d1ec82e84ac6715a0f206 *phish2011-06-12s1t11.flac
cb83e93e657ed97a0a86c6b04db2a2dc *phish2011-06-12s1t12.flac
c62c1a1dbda66eff275ce2d2a3d523fa *phish2011-06-12s1t13.flac
aa9781fac4b48d19d1f6a11c1f61f64c *phish2011-06-12s2t01.flac
68c16936502c77b4829b7fb12df03aa0 *phish2011-06-12s2t02.flac
b725baa1b5da1737222e7c34ca3d8797 *phish2011-06-12s2t03.flac
625e6fef8c232e9fd45e385ce37afd71 *phish2011-06-12s2t04.flac
822120010f9b263dce573e84c11289b9 *phish2011-06-12s2t05.flac
55d8c79cee92835af0da730c1397833f *phish2011-06-12s2t06.flac
e910e8c788a5089db1bdef78e5d8df7a *phish2011-06-12s2t07.flac
f81f8a2b9e0a06e4977281f828cf4ccb *phish2011-06-12s2t08.flac
33c9dc180665672be9494ad4426a2885 *phish2011-06-12s2t09.flac
0bd64abd08ee200f4397a846588059f7 *phish2011-06-12s2t10.flac
c7f9d6853ac2f7331e06eb2e24cb9cb9 *phish2011-06-12s2t11.flac
63e6c62b59a20296fda4df9327a2c104 *phish2011-06-12s2t12.flac
fdc92fd62f657306717942eef8f8837f *phish2011-06-12s2t13.flac
38982766c5d60a52ea5675bdd1bebd1c *phish2011-06-12s2t14.flac
16bit-FFP
phish2011-06-12s1t01.flac:5e1610fe20bf8c523d7e84f4ad72234b
phish2011-06-12s1t02.flac:f547f13c399f0c8e7556849ddce5d02e
phish2011-06-12s1t03.flac:4bafa0c23d3bf0520f1f0c3d3661303d
phish2011-06-12s1t04.flac:0a71fdd76dbe2feb4956c83c7c849c97
phish2011-06-12s1t05.flac:f0c714acd5c84cecafe33549252766cc
phish2011-06-12s1t06.flac:194794576acea2f535545e56838517e7
phish2011-06-12s1t07.flac:e0eab2511d25b8b1b222e048a2d3adcc
phish2011-06-12s1t08.flac:4dcc2c4fdda73ef3a96373b175123ea6
phish2011-06-12s1t09.flac:0c813eb12d5c9495d4e0958cf062ac8c
phish2011-06-12s1t10.flac:aca78901af6a72aae1cec24a7572e97a
phish2011-06-12s1t11.flac:fcbf34228a6030fcc0b871f16b50bd16
phish2011-06-12s1t12.flac:00919960dd0b05c733f0aa49dcbf7dcb
phish2011-06-12s1t13.flac:31728b663d52a224445ee036d267b0b5
phish2011-06-12s2t01.flac:4876594b8c5364d0a6fc0d6a1ea12a07
phish2011-06-12s2t02.flac:5d64d6d8d40b092055807406938a70fe
phish2011-06-12s2t03.flac:8b204c41232f64fd9146537e47a4d631
phish2011-06-12s2t04.flac:637776a771f69e9a02dcdb010616dfd3
phish2011-06-12s2t05.flac:590d670ba0b3bb29cfa5f42872eccc8b
phish2011-06-12s2t06.flac:964f81e7dc9253fb7370f4a348aa48b7
phish2011-06-12s2t07.flac:c1782a9641368f3d86b0de040ba250b4
phish2011-06-12s2t08.flac:8715778c1f2db5e17f7ed5bbfa773a51
phish2011-06-12s2t09.flac:e4d35d3147fd486f490f59424afe6018
phish2011-06-12s2t10.flac:2b1d701acd469d5b69746f3185d41b98
phish2011-06-12s2t11.flac:86a14d1310601147a1307293914189ec
phish2011-06-12s2t12.flac:6224030d28f8bd8810b732b1beacb33d
phish2011-06-12s2t13.flac:b39271929e3199a8af770a0ccc1e606f
phish2011-06-12s2t14.flac:620709cb3a889f9ecc82a07a6d042012
16bit-FLAC-md5
7a0549dbd53e1fcdf2b6531dfdcee472 *phish2011-06-12s1t01.flac
384341b85e2999f4400c4cf600d40a82 *phish2011-06-12s1t02.flac
4dbf0ef704c15cccccff2c32c646bd33 *phish2011-06-12s1t03.flac
b5dfc8133fe3f14a09020913ebaef755 *phish2011-06-12s1t04.flac
80d74f768c580797b968c7a0a8269d0d *phish2011-06-12s1t05.flac
670964c648495e868a0f2c7024f47557 *phish2011-06-12s1t06.flac
9df2387d023f02d88ad08ef0ef58ce5e *phish2011-06-12s1t07.flac
79832890e533774b89b727a833782b1c *phish2011-06-12s1t08.flac
5d3cd48d670e82c5e3dffbb8ed4f9875 *phish2011-06-12s1t09.flac
c3d6938b72f7c13ed2b6f2309148a84a *phish2011-06-12s1t10.flac
a9370b74de94c0f343a36ac0a4bdae24 *phish2011-06-12s1t11.flac
e63247d04eb925e3b8d3c5aa10faf76d *phish2011-06-12s1t12.flac
20b61c47506adeccaf59029410d4be4e *phish2011-06-12s1t13.flac
0df3b0a22493199811ae2f06bf545b4c *phish2011-06-12s2t01.flac
f47c69b38bf1437eeec5d7a6c03790c3 *phish2011-06-12s2t02.flac
1f13dc8ebf2951856ee52a2030af29ba *phish2011-06-12s2t03.flac
7cc04e06288122ac5f8162be1eeb31bd *phish2011-06-12s2t04.flac
39db6b648c5d2cbd0c710e5f60e494ca *phish2011-06-12s2t05.flac
a6779d5aa834dfce47edcd4cba53142f *phish2011-06-12s2t06.flac
484771f6508a75bb1d2a90e49c50c41a *phish2011-06-12s2t07.flac
0abac25ef5b2f84ffac2e49d388ebd79 *phish2011-06-12s2t08.flac
24abbb38e4e9b02fec04f57196bf97e5 *phish2011-06-12s2t09.flac
609b09183e386c0a933d9a0b2f021607 *phish2011-06-12s2t10.flac
9d4a97432fcbaef2a2fc2cb5c4a0f9ee *phish2011-06-12s2t11.flac
72142e34a87dee875d6ddc3ef4ab6e6a *phish2011-06-12s2t12.flac
b524c8839ec9ca3d8a4e0482bf182f3b *phish2011-06-12s2t13.flac
22bc5aec4dcd9a0288b9b032c08f1385 *phish2011-06-12s2t14.flac

Comments
Add Comment
Other Sources (comments)
flac16 &... (0) flac16 &... (0) flac16; Schoeps... (0) flac16 &... (0) flac16; AKG CK93 >... (0) flac16; Neumann ak50... (0) flac16; Schoeps MK41... (0) flac16; Schoeps CCM4... (0)
Date User Comment