Browse Collections Artists Sources   Search Dates

Add Show    List Management    Help


Medeski Martin & Wood 11/14/10
Tarrytown Music Hall, Tarrytown, NY
Comments Add Comment    Source Collectors    Add to Collection    Add to Want List    History
Source # 114402 Other Sources
Entered by Tom Luhrs
Checksums ffp
Disc Counts 1 / 2
Media Size
Date Circulated
Date Added
07/03/2011
07/03/2011
Source Summary flac16; Schoeps mk22~> kc5~> cmc6~> fostex fr2le with oade [email protected] (Row H, Seat 106 & 107, APPROX 30' From The Stage, Caps Spaced 12.5", Angle Of 80 degrees); R8brain for 24bit/48kHz to 16bit/44.1KHz conversion > Tracked In CDWAVE > Flac'd In Traders Little Helper > Tagged In Foobar2000 With Live Show Tagger; Taped & transferred by Todd Turmel 
Source Information - Download Text | Download Zip
Medeski Martin and Wood
November 14, 2010
Tarrytown Music Hall
Tarrytown, NY

SOURCE:
Schoeps mk22~> kc5~> cmc6~> fostex fr2le with oade [email protected]

LOCATION/CONFIGURATION:
Row H, Seat 106 & 107
APPROX 30' From The Stage
Caps Spaced 12.5", Angle Of 80 degrees

EDITING:
-No Edits
--R8brain for 24bit/48kHz to 16bit/44.1KHz conversion
-Tracked In CDWAVE
-Flac'd In Traders Little Helper
-Tagged In Foobar2000 With Live Show Tagger

RECORDED & TRANSFERRED BY:
Todd Turmel (newplanet 7 at CONcast dot net)


THE PLAYERS:
John Medeski- Piano, Keyboards, Cow Bell
Chris Wood- Electric and Upright Bass, Cow Bell
Billy Martin- Percussion


DISC ONE-SET ONE:
01) Improv
02) Chantes Des Femmes
03) Dollar Pants
04) Baby Goats
05) Junkyard
06) Amber Gris

DISC TWO-SET TWO:
01) Big Time
02) Walk Back
03) Drum Solo
04) Wonton
05) Bass Solo
06) Padrecito
07) Fuck You Guys
08) -CROWD-
09) Baby Let Me Follow You Down

*********************************************************************
BIG TIME THANKS TO MMW FOR ALLOWING AUDIENCE RECORDING AND TRADING!!!
*********************************************************************
length expanded size cdr WAVE problems fmt ratio filename
8:32.13 90347420 B --- -- ----- wav 1.0000 mmw2010-11-14d1t01.wav
13:01.35 137850764 B --- -- ----- wav 1.0000 mmw2010-11-14d1t02.wav
6:42.39 71004572 B --- -- ----- wav 1.0000 mmw2010-11-14d1t03.wav
10:40.71 113063036 B --- -- ----- wav 1.0000 mmw2010-11-14d1t04.wav
9:08.22 96718988 B --- -- ----- wav 1.0000 mmw2010-11-14d1t05.wav
8:40.40 91822124 B --- -- ----- wav 1.0000 mmw2010-11-14d1t06.wav
8:47.13 92993420 B --- -- ----- wav 1.0000 mmw2010-11-14d2t01.wav
10:17.21 108888236 B --- -- ----- wav 1.0000 mmw2010-11-14d2t02.wav
9:52.71 104595836 B --- -- ----- wav 1.0000 mmw2010-11-14d2t03.wav
7:30.34 79460012 B --- -- ----- wav 1.0000 mmw2010-11-14d2t04.wav
3:43.20 39384284 B --- -- ----- wav 1.0000 mmw2010-11-14d2t05.wav
11:48.29 124959452 B --- -- ----- wav 1.0000 mmw2010-11-14d2t06.wav
13:17.61 140734316 B --- -- ----- wav 1.0000 mmw2010-11-14d2t07.wav
1:37.04 17120252 B --- -- ----- wav 1.0000 mmw2010-11-14d2t08.wav
11:43.21 124058636 B --- -- ----- wav 1.0000 mmw2010-11-14d2t09.wav
135:23.44 1433001348 B 1.0000 (15 files)
Show Checksums
ffp
mmw2010-11-14d1t01.flac:9eb67941aadc3f5251497b44e8c87868
mmw2010-11-14d1t02.flac:da76a0391a310e2e35ebd0f427a16bda
mmw2010-11-14d1t03.flac:dbbe7bd0227e8989f83298d8c258d9ec
mmw2010-11-14d1t04.flac:8a3b50b7bc69912518125fc3c9425ca6
mmw2010-11-14d1t05.flac:0a3cd5d93bc9c8e762eded6b18c41a85
mmw2010-11-14d1t06.flac:39b63a8c213ffce3820b0e349e683fef
mmw2010-11-14d2t01.flac:ac51d017b6de868428003b8413583907
mmw2010-11-14d2t02.flac:9ad54abc954aea2a8667a6a96cc52e09
mmw2010-11-14d2t03.flac:f84b6a13d860a4383e228377294c6df6
mmw2010-11-14d2t04.flac:1c25e1e7e231b45029efb4c9ddf1db5b
mmw2010-11-14d2t05.flac:6d44c4c136c44950bc63d8a75cd15d80
mmw2010-11-14d2t06.flac:f2ff15fd6a736a86ebce681eeb1800aa
mmw2010-11-14d2t07.flac:4426a76b7f7441da14c084a70898c3f1
mmw2010-11-14d2t08.flac:b2be0627efa3ba1b0972ba5d086cf396
mmw2010-11-14d2t09.flac:445077b705992ea5526de0dd4cd37e54

Comments
Add Comment
Other Sources (comments)
flac16; Source: AKG... (1) flac16; Source:... (0) flac16; Source:... (0)
Date User Comment